Μη Συνδεδεμενος Παρακαλώ συνδεθείτε ή εγγραφείτε

Επισκόπηση προηγούμενης Θ.Ενότητας Επισκόπηση επόμενης Θ.Ενότητας Πήγαινε κάτω  Μήνυμα [Σελίδα 1 από 1]

#1
 POPIKOSTAS




MARATHON MAN - ΑΝΘΡΩΠΟΚΥΝΗΓΗΤΟ (1976) DVDRip - ΕΝΣΩΜΑΤΩΜΕΝΟΙ ΥΠΟΤΙΤΛΟΙ

Ένα θρίλερ

Χώρα παραγωγής: Η.Π.Α.
Χρονιά παραγωγής: 1976
Πρώτη προβολή στις Η.Π.Α.: 6/101976 - Επίσημη Πρεμιέρα
Πρώτη προβολή στην Ευρώπη: 17/12/1976 - Ισπανία
Πρώτη προβολή στην Ελλάδα: 31/3/1997
Κυκλοφορία DVD στην Ελλάδα: 19/3/2002
Διάρκεια: 2:00:14
Κατηγορία: Αστυνομικό Θρίλερ

DVDRip, SubRip: DINOSAUR
Πηγή: DVD-R Region 2

Ερμηνεύουν:
Laurence OIivier ως Δρ. Christian Szell
Dustin Hoffman ως Thomas Babington "Babe" Levy
Roy Scheider ως Henry "Doc" Levy
William Devane ως Peter Janeway
Marthe Keller ως Elsa Opel
Richard Bright ως Karl
Marc Lawrence Erhard
Fritz Weaver ως καθηγητής Biesenthal
Jacques Marin ως LeClerc
Allen Joseph ως πατέρας των αδελφών Levy
Tito Goya ως Melendez
ο Ben Dova είναι ο αδελφός του Szell
Lou Gilbert ως Rosenbaum
James Wing Woo ως Chen
Jaime Tirelli ως μέλος συμμορίας
Billy Kearns σε ρόλο τουρίστα
Alma Beltran σε ρόλο πλύστρας
Raymond Serra σε ρόλο φορτηγατζή
Madge Kennedy, μια κυρία στην τράπεζα
Estelle Omens, μία παρευρισκόμενη
Irving Metzman ως μάρτυρας ατυχήματος
Mark L. Taylor σε ρόλο φοιτητή
Treat Williams, ένας δρομέας

Σκηνοθεσία: John Schlesinger
Παραγωγή: Sidney Beckerman & Robert Evans
Σενάριο: William Goldman από το βιβλίο του ίδιου
Φωτογραφία: Conrad L. Hall
Μουσική: Michael Small

Τοποθεσίες γυρισμάτων:
Νέα Υόρκη, Λος Άντζελες (Η.Π.Α.), Παρίσι, Saint-Ouen (Γαλλία)

Βραβεύσεις:
Χρυσή Σφαίρα (1977) 2ου Ανδρικού ρόλου για τον Laurence Olivier.
Άλλες 2 βραβεύσεις και 9 υποψηφιότητες σε Η.Π.Α., Βρετανία και Ιταλία.

Πλοκή
Ο Thomas Levy, με το παρατσούκλι ''Babe'', είναι υποψήφιος για το Διδακτορικό Δίπλωμα στην Ιστορία και ασχολείται στην πτυχιακή του διατριβή στον ίδιο τομέα, όπως και ο πατέρας του, που αυτοκτόνησε μετά από έρευνα κατά τη διάρκεια της περιόδου του Μακαρθισμού. Ο Babe είναι επίσης φανατικός δρομέας, ιδιότητα που ορίζει τον τίτλο της ταινίας. Ο αδελφός του Babe, ο Henry, πιο γνωστός ως ''Doc'', παρουσιάζεται ως εκτελεστικός διευθυντής σε πετρελαϊκή εταιρεία, αλλά στην πραγματικότητα είναι πράκτορας της κυβέρνησης των ΗΠΑ που εργάζονται σε μία αποστολή με επικεφαλής τον Peter Janeway. Ο Babe δεν γνωρίζει την πραγματική απασχόληση του αδελφού του. Ο Doc απουσιάζει συχνά, δήθεν στο εξωτερικό για επαγγελματικούς λόγους και για μεγάλα χρονικά διαστήματα, αλλά βρίσκεται στην Νέα Υόρκη υπό το πρόσχημα μιας επίσκεψης στον Babe. Ο αδελφός ενός Ναζί εγκληματία πολέμου διαθέτει το κλειδί μίας θυρίδας όπου φυλάσσεται μία βαλίτσα-χρηματοκιβώτιο, αλλά σκοτώνεται σε τροχαίο ατύχημα (μετά από μια φαινομενικά χιουμοριστική φιλονικία με έναν μεσήλικα αυτοκινητιστή εβραϊκής καταγωγής). Ο Doc υποψιάζεται ότι ο εγκληματίας πολέμου, Δρ Christian Szell, θα έρθει στη Νέα Υόρκη για να ξανακάνει δική του μια εξαιρετικά πολύτιμη συλλογή διαμαντιών. Ο Babe ερωτεύεται και συνάπτει δεσμό με μια νεαρή γυναίκα με το όνομα Elsa Opel, που ισχυρίζεται ότι είναι από την Ελβετία. Ένα βράδυ, ενώ βρίσκονται έξω σε ραντεβού, η Elsa και ο Babe φαίνεται ότι γίνονται θύματα ληστείας σε ένα πάρκο από δύο άντρες ντυμένους με κοστούμια. Λίγο καιρό αργότερα, ο Doc προσφέρει στο ζευγάρι ένα γεύμα, όπου με κατάλληλες ερωταποκρίσεις αποκαλύπτει ότι η Elsa έχει πει ψέματα στον Babe σχετικά με το παρελθόν και την καταγωγή της. Αν και ο Doc υποπτεύεται ότι μπορεί η Elsa να είχε κάποια σχέση με τον Szell, λέει στον Babe πως πιστεύει ότι επιζητεί έναν αμερικανό σύζυγο ώστε να μπορέσει να γίνει πολίτης των ΗΠΑ. Η κατάσταση περιπλέκεται όταν ο Doc, βρίσκεται την επόμενη μέρα μαχαιρωμένος.

Κριτική από τον Μίλτο Σαλβαρλή και το entertainment.in.gr
Η ταινία που καθιέρωσε στις ΗΠΑ τον γεννημένο στη Βρετανία σκηνοθέτη John Schlesinger ήταν ένα εντυπωσιακό αστυνομικό θρίλερ, βασισμένο στο ομότιτλο μπεστ σέλερ του William Goldman, με αρκετά περίπλοκη υπόθεση και σκηνές βίας που προκαλούν ρίγη στο θεατή - τι θα λέγατε για βασανιστήρια με… οδοντιατρικά εργαλεία; Η ανέλιξη της ιστορίας, που βάζει σταδιακά το θεατή στο παιχνίδι και θέλει ένα φοιτητή να εμπλέκεται σε παράνομη διακίνηση διαμαντιών με πράκτορες και πρώην ναζί, προδίδει λίγο την ηλικία του φιλμ. Όμως, ακόμα και σήμερα, δύσκολα αντιστέκεσαι στη γοητεία των δύο πρώτου μεγέθους ηθοποιών που υποδύονται τους αντίστοιχους πρωταγωνιστικούς ρόλους.

Ο 39χρονος τότε Hoffman, ήδη τρεις φορές υποψήφιος για Όσκαρ, ακολουθεί την αμερικανική σχολή υποκριτικής ''εξωτερικεύοντας'' το χαρακτήρα του Babe. Αντίθετα, το ιερό τέρας της βρετανικής θεατρικής σκηνής, Laurence Olivier (εδώ υποψήφιος για Όσκαρ Β΄ Ανδρικού Ρόλου), ξεκινά από το εξωτερικό περίβλημα του ρόλου, ερμηνεύοντας εσωτερικά τον σαδιστή Szell. Ο ''Μαραθωνοδρόμος'', όπως είναι ο αυθεντικός τίτλος, αποτέλεσε μεγάλη εισπρακτική επιτυχία της δεκαετίας του ΄70, ενώ το πιο δημοφιλές ανέκδοτο από τα παρασκήνια θέλει τον Hoffman να φτάνει ξενυχτισμένος και κουρασμένος στο πλατό, προκειμένου να γυρίσει πειστικά τη σκηνή της καταδίωξης, και τον έκπληκτο Olivier να παρατηρεί: ''Δεν θα ήταν πιο εύκολο να υποκριθείς τον κουρασμένο;''!



[video][Πρέπει να είστε εγγεγραμμένοι και συνδεδεμένοι για να δείτε αυτόν το σύνδεσμο.]

Κώδικας:
http://www.imdb.com/title/tt0074860/

ΤΕΧΝΙΚΑ ΧΑΡΑΚΤΗΡΙΣΤΙΚΑ

Σπόιλερ:

General
Complete name : Marathon Man.1976.DVDRip.x264.AC3.mkv
Format : Matroska
Format version : Version 2
File size : 1.76 GiB
Duration : 2 h 0 min
Overall bit rate : 2 093 kb/s
Writing application : HandBrake 0.9.9
Writing library : libmkv 0.6.5

Video
ID : 1
Format : AVC
Format/Info : Advanced Video Codec
Format profile : High@L4
Format settings : CABAC / 4 Ref Frames
Format settings, CABAC : Yes
Format settings, RefFrames : 4 frames
Codec ID : V_MPEG4/ISO/AVC
Duration : 2 h 0 min
Bit rate : 1 620 kb/s
Width : 720 pixels
Height : 400 pixels
Display aspect ratio : 16:9
Frame rate mode : Constant
Frame rate : 25.000 FPS
Color space : YUV
Chroma subsampling : 4:2:0
Bit depth : 8 bits
Scan type : Progressive
Bits/(Pixel*Frame) : 0.225
Stream size : 1.35 GiB (77%)
Writing library : x264 core 130 r2273 b3065e6
Encoding settings : cabac=1 / ref=1 / deblock=1👎-1 / analyse=0x3:0x113 / me=hex / subme=2 / psy=1 / psy_rd=1.00:0.15 / mixed_ref=0 / me_range=16 / chroma_me=1 / trellis=0 / 8x8dct=1 / cqm=0 / deadzone=21,11 / fast_pskip=1 / chroma_qp_offset=0 / threads=3 / lookahead_threads=1 / sliced_threads=0 / nr=0 / decimate=1 / interlaced=0 / bluray_compat=0 / constrained_intra=0 / bframes=3 / b_pyramid=2 / b_adapt=1 / b_bias=0 / direct=1 / weightb=1 / open_gop=0 / weightp=1 / keyint=250 / keyint_min=25 / scenecut=40 / intra_refresh=0 / rc_lookahead=10 / rc=abr / mbtree=1 / bitrate=1620 / ratetol=1.0 / qcomp=0.60 / qpmin=0 / qpmax=69 / qpstep=4 / vbv_maxrate=25000 / vbv_bufsize=31250 / nal_hrd=none / ip_ratio=1.40 / aq=1:1.00
Language : English
Default : Yes
Forced : No
Color range : Limited
Color primaries : BT.601 PAL
Transfer characteristics : BT.709
Matrix coefficients : BT.601

Audio
ID : 2
Format : AC-3
Format/Info : Audio Coding 3
Format settings, Endianness : Big
Codec ID : A_AC3
Duration : 2 h 0 min
Bit rate mode : Constant
Bit rate : 448 kb/s
Channel(s) : 6 channels
Channel positions : Front: L C R, Side: L R, LFE
Sampling rate : 48.0 kHz
Frame rate : 31.250 FPS (1536 SPF)
Bit depth : 16 bits
Compression mode : Lossy
Stream size : 385 MiB (21%)
Language : English
Service kind : Complete Main
Default : Yes
Forced : No

Text
ID : 3
Format : VobSub
Codec ID : S_VOBSUB
Codec ID/Info : Picture based subtitle format used on DVDs
Language : Greek
Default : Yes
Forced : No








Επισκόπηση του προφίλ των χρηστών

Επισκόπηση προηγούμενης Θ.Ενότητας Επισκόπηση επόμενης Θ.Ενότητας Επιστροφή στην κορυφή  Μήνυμα [Σελίδα 1 από 1]


Δικαιώματα σας στην κατηγορία αυτή
Δεν μπορείτε να απαντήσετε στα Θέματα αυτής της Δ.Συζήτησης

Τρόποι Κοινοποίησης:
URL:
BBCode:
HTML: