Μη Συνδεδεμενος Παρακαλώ συνδεθείτε ή εγγραφείτε

Επισκόπηση προηγούμενης Θ.Ενότητας Επισκόπηση επόμενης Θ.Ενότητας Πήγαινε κάτω  Μήνυμα [Σελίδα 1 από 1]

#1
 POPIKOSTAS




THE CONSTANT NYMPH (1943) DSR x264-REGRET - ΞΕΧΩΡΙΣΤΟΙ ΥΠΟΤΙΤΛΟΙ

Σκηνοθεσία: Edmund Goulding
Σενάριο: Kathryn Scola , Margaret Kennedy
Ηθοποιοί: Charles Boyer, Joan Fontaine, Brenda Marshall, Charles Coburn, May Whitty, Peter Lorre, Joyce Reynolds
Είδος ταινίας: Drama, Music, Romance
Χώρα παραγωγής: USA

Υποτιτλισμός: mousias

Συγχρονισμός: Ariel

Η 14χρονη Τίσα είναι ερωτευμένη με τον όμορφο συνθέτη Λούις Τοντ, αλλά αυτός δεν δείχνει κάποια ανταπόκριση. Όταν ο πατέρας της Τίσα πεθαίνει, ο Λούις μπαίνει ενεργά στην οικογένεια για να βοηθήσει. Ο συνθέτης θα ερωτευτεί την ξαδέλφη της Τίσα και θα φύγει μαζί της για την Βρετανία. Όμως, η μοίρα της Τίσα δεν έχει ακόμα διαχωριστεί από τον Λούις.

[video][Πρέπει να είστε εγγεγραμμένοι και συνδεδεμένοι για να δείτε αυτόν το σύνδεσμο.]



Κώδικας:
http://www.imdb.com/title/tt0035751/

ΤΕΧΝΙΚΑ ΧΑΡΑΚΤΗΡΙΣΤΙΚΑ

Σπόιλερ:

General

Complete name : the.constant.nymph.1943.dsr.x264-regret.mkv

Format : Matroska

Format version : Version 4 / Version 2

File size : 1.14 GiB

Duration : 1 h 51 min

Overall bit rate : 1 459 kb/s

Encoded date : UTC 2017-02-06 16:55:30

Writing application : mkvmerge v9.7.1 ('Pandemonium') 64bit

Writing library : libebml v1.3.4 + libmatroska v1.4.5

Video

ID : 1

Format : AVC

Format/Info : Advanced Video Codec

Format profile : High@L3.1

Format settings, CABAC : Yes

Format settings, ReFrames : 5 frames

Codec ID : V_MPEG4/ISO/AVC

Duration : 1 h 51 min

Bit rate : 1 379 kb/s

Width : 640 pixels

Height : 476 pixels

Display aspect ratio : 4:3

Frame rate mode : Constant

Frame rate : 23.976 (24000/1001) FPS

Color space : YUV

Chroma subsampling : 4:2:0

Bit depth : 8 bits

Scan type : Progressive

Bits/(Pixel*Frame) : 0.189

Stream size : 1.08 GiB (95%)

Writing library : x264 core 148 r2762 90a61ec

Encoding settings : cabac=1 / ref=5 / deblock=1:0:0 / analyse=0x3:0x113 / me=hex / subme=8 / psy=1 / psy_rd=1.00:0.00 / mixed_ref=1 / me_range=16 / chroma_me=1 / trellis=2 / 8x8dct=1 / cqm=0 / deadzone=21,11 / fast_pskip=1 / chroma_qp_offset=-2 / threads=12 / lookahead_threads=2 / sliced_threads=0 / nr=0 / decimate=1 / interlaced=0 / bluray_compat=0 / constrained_intra=0 / bframes=3 / b_pyramid=2 / b_adapt=1 / b_bias=0 / direct=3 / weightb=1 / open_gop=0 / weightp=2 / keyint=250 / keyint_min=23 / scenecut=40 / intra_refresh=0 / rc_lookahead=50 / rc=crf / mbtree=1 / crf=19.0 / qcomp=0.60 / qpmin=0 / qpmax=69 / qpstep=4 / ip_ratio=1.40 / aq=1:1.00

Default : Yes

Forced : No

Audio

ID : 2

Format : AAC

Format/Info : Advanced Audio Codec

Format profile : LC

Codec ID : A_AAC

Duration : 1 h 51 min

Bit rate : 77.2 kb/s

Channel(s) : 1 channel

Channel positions : Front: C

Sampling rate : 48.0 kHz

Frame rate : 46.875 FPS (1024 spf)

Compression mode : Lossy

Delay relative to video : 20 ms

Stream size : 61.8 MiB (5%)

Language : English

Default : Yes

Forced : No

Text

ID : 3

Format : UTF-8

Codec ID : S_TEXT/UTF8

Codec ID/Info : UTF-8 Plain Text

Duration : 1 h 51 min

Bit rate : 133 b/s

Count of elements : 2600

Stream size : 109 KiB (0%)

Language : English

Default : No

Forced : No








Επισκόπηση προηγούμενης Θ.Ενότητας Επισκόπηση επόμενης Θ.Ενότητας Επιστροφή στην κορυφή  Μήνυμα [Σελίδα 1 από 1]


Δικαιώματα σας στην κατηγορία αυτή
Δεν μπορείτε να απαντήσετε στα Θέματα αυτής της Δ.Συζήτησης

Τρόποι Κοινοποίησης:
URL:
BBCode:
HTML: