Μη Συνδεδεμενος Παρακαλώ συνδεθείτε ή εγγραφείτε

Επισκόπηση προηγούμενης Θ.Ενότητας Επισκόπηση επόμενης Θ.Ενότητας Πήγαινε κάτω  Μήνυμα [Σελίδα 1 από 1]

#1
 POPIKOSTAS




Ο ΑΝΤΡΑΣ ΤΩΝ ΟΝΕΙΡΩΝ ΜΟΥ (2017 - ) 720p WEBDL -Ft4U - ΣΥΝΕΧΗΣ ΑΝΑΝΕΩΣΗ

Η ft4u, απαγόρευσε το διαμοιρασμό των αρχείων της. Προφανώς, έχουν πάρει ειδική άδεια από τα κανάλια να ανεβάζουν τις εκπομπές τους και μάλιστα χωρίς τις διαφημίσεις, γι αυτό και διεκδικούν πνευματικά δικαιώματα. Κλάφτηκαν κιόλας στους διαχειριστές του site, ώστε να με αποκλείσουν και να μην έχω πρόσβαση στα αρχεία τους. Ντροπή για 1 τόσο ιστορική ομάδα, να απαρτίζεται από "μικρούς" ανθρώπους.

Έτος Παραγωγής: 2017
Διάρκεια: 60 λεπτά
Κατηγορία: Κωμωδίες-Κομεντί
Πρωταγωνιστές: Δημήτρης Λιακόπουλος, Βασιλική Τρουφάκου, Ελένη Γερασιμίδου, Χρήστος Χατζηπαναγιώτης, Άννα Αδριανού, Ρένος Χαραλαμπίδης, Νικολέτα Βλαβιανού, Δήμητρα Σιγάλα, Αντώνης Καρυστινός, Χάρης Τζωρτζάκης, Βασίλης Ευταξόπουλος, Ευγενία Παναγοπούλου, Λευτέρης Βασιλάκης, Γιώργος Βουβάκης, Ιουλία Καλογρίδου, Κωνσταντίνα Κομμάτα, Ανδρέας Βούλγαρης, Ανδρέας Φυλακτού, Πέννυ Φοινίρη, Χάρης Αριστείδου, Αντώνης Ζαχαράτος, Παναγιώτης Σούλης, Ξένια Κωνσταντινίδου, Κατερίνα Αντζουλάτου, Ελισάβετ Πολίτη Σκηνοθεσία: Ρέινα Εσκενάζι, Κώστας Κιμούλης

​Είναι γνωστό και πολύ αληθινό πως όταν δυο άνθρωποι παντρεύονται, την ίδια στιγμή «φορτώνονται» και το σόι του συντρόφου τους.

Αυτό είναι, που πάντα ήθελε να αποφύγει η Αθηνά (Βασιλική Τρουφάκου) και πίστεψε ότι το κατάφερε και βρήκε τον άντρα των ονείρων της, όταν γνώρισε τον Τζακ (Δημήτρης Λιακόπουλος)!

Η Αθηνά και ο Τζακ είναι νιόπαντροι και ευτυχισμένοι. Ζουν μακριά από συγγενείς, με εξαίρεση τη μητέρα της Αθηνάς, την Έλλη.

Ο Τζακ είναι υιοθετημένος και δεν έχει γνωρίσει ποτέ τους πραγματικούς γονείς του. Οι θετοί του γονείς ζουν στη Μεγάλη Βρετανία και δεν επεμβαίνουν στη ζωή των παιδιών τους. Αυτό το στοιχείο η Αθηνά το θεωρεί το πιο σημαντικό από όλα: Έχει επιλέξει να παντρευτεί τον Τζακ, διότι μαζί του δεν έχει στο κεφάλι της, πεθερά και σόι που θα επηρέαζαν τη ζωή και την ευτυχία τους.

Την ίδια στιγμή, κάπου στην Αθήνα, ζει η οικογένεια Καρασαββίδη. Η γιαγιά Ιωάννα, τα τρία παιδιά της και τα εγγόνια της.

Είναι μια κλασική ελληνική οικογένεια, με όλα τα «πληθωρικά» χαρακτηριστικά της. Φωνάζουν, γιορτάζουν, κλαίνε, γελάνε, υποφέρουν, ευτυχούν και όλα αυτά, τα κάνουν με την ψυχή τους.

Ωστόσο, στο ιστορικό της οικογένειας υπάρχει μια σκιά: Εικοσιέξι χρόνια πριν, την ημέρα που γεννήθηκε η Μίκα, το τρίτο παιδί του Πανίκου και της Αγγελικής, εξαφανίστηκε και ο τετράχρονος γιος τους, ο Γιάννης. Όσο κι αν έψαξαν, δεν τον βρήκαν ποτέ.

Η ζωή συνεχίστηκε όπως γίνεται πάντα και η οικογένεια έμαθε να ζει με αυτόν τον καημό. Αλλά, δε γιόρτασαν ποτέ τα γενέθλια της κόρης τους, διότι η μέρα αυτή ήταν ταυτόχρονα και μέρα πένθους για την εξαφάνιση του μικρού. Ο χαμένος γιος, μεγάλωσε με άλλους γονείς, μακριά τους, χωρίς οι ίδιοι να γνωρίζουν τι απέγινε.

Αυτός ο γιος είναι ο Τζακ.

Και η ζωή τα φέρνει έτσι ώστε να μετακομίσει μαζί με την Αθηνά, στην οικογενειακή πολυκατοικία της οικογένειας Καρασαββίδη. Εκεί, δηλαδή, που έζησε ως παιδάκι. Εκεί που ζουν η μητέρα του, ο πατέρας του, η γιαγιά και οι αδελφές του. Και, μάλιστα, στην ακριβώς απέναντι πόρτα από τους γονείς του!

Παρόλο που ο ίδιος δε θυμάται τίποτα, αισθάνεται τεράστια οικειότητα για το συγκεκριμένο χώρο και του αρέσουν όλα τα χαρακτηριστικά του: Οι φωνές, οι μυρωδιές, η βαβούρα, η οικογενειακή ατμόσφαιρα. Δηλαδή, ακριβώς αυτά που κάνουν την Αθηνά να αρρωσταίνει.

Έτσι, σιγά -σιγά, η σχέση του ζευγαριού αρχίζει να δοκιμάζεται! Και σα να μην έφτανε αυτό, ο Τζακ αρχίζει να επιθυμεί να βρει τους βιολογικούς του γονείς.

Η εμφάνιση, όμως, ενός μυστηριώδους προσώπου θα ανατρέψει τα πάντα και θα πυροδοτήσει αναπάντεχες εξελίξεις!

Πρόκειται για μια ιστορία γεμάτη ανθρωπιά, συγκίνηση, μυστήριο, ανατροπές, αλλά και πολλή αγάπη. Και με το κωμικό στοιχείο να παραμονεύει πίσω από κάθε κατάσταση. Όπως ακριβώς συμβαίνει και στη ζωή...

    Η σειρά είναι βασισμένη στην κορεάτικη παραγωγή με τίτλο «My husband got a family».


Ελεύθερη διασκευή σεναρίου: Εμμανουέλα Αλεξίου, Αποστόλης Τσαούσογλου
Επιμέλεια Σεναρίου: Άκης Χαραλαμπίδης
Επιμέλεια Διαλόγων: Άθως Αντωνίου, Νίκος Απειρανθίτης, Πάνος Έξαρχος, Μαρία Χατζηγρηγορίου
Καλλιτεχνική επιμέλεια: Γιάννης Μπότσης
Διεύθυνση φωτογραφίας: Γιώργος Αποστολίδης, Γιάννης Κουρπαδάκης
Μοντάζ: Γιώργος Κατσένης
Σκηνογράφος: Ελένη Πάττα
Ενδυματολόγος: Μαρία Καραδήμα
Ήχος: Αποστόλης Ντασκαγιάννης, Βασίλης Κυριακόπουλος
Μουσική: Νίκος Τερζής
Εταιρεία παραγωγής: Pedio Productions

[video=youtube;pMJAUMrRZFc][Πρέπει να είστε εγγεγραμμένοι και συνδεδεμένοι για να δείτε αυτόν το σύνδεσμο.]



ΤΕΧΝΙΚΑ ΧΑΡΑΚΤΗΡΙΣΤΙΚΑ

Σπόιλερ:

General
Complete name               : O.Antras.Twn.Oneirwn.Moy.S01E001.720p.WEBDL-Ft4U.MP4
Format                      : MPEG-4
Format profile              : Base Media
Codec ID                    : isom (isom/iso2/avc1/mp41)
File size                   : 677 MiB
Duration                    : 47 min 7 s
Overall bit rate mode       : Variable
Overall bit rate            : 2 007 kb/s
Encoded date                : UTC 2017-10-04 06:40:10
Tagged date                 : UTC 2017-10-04 06:40:10

Video
ID                          : 1
Format                      : AVC
Format/Info                 : Advanced Video Codec
Format profile              : Main@L3.2
Format settings             : CABAC / 3 Ref Frames
Format settings, CABAC      : Yes
Format settings, RefFrames  : 3 frames
Codec ID                    : avc1
Codec ID/Info               : Advanced Video Coding
Duration                    : 47 min 7 s
Bit rate                    : 1 876 kb/s
Width                       : 1 280 pixels
Height                      : 720 pixels
Display aspect ratio        : 16:9
Frame rate mode             : Constant
Frame rate                  : 50.000 FPS
Color space                 : YUV
Chroma subsampling          : 4:2:0
Bit depth                   : 8 bits
Scan type                   : Progressive
Bits/(Pixel*Frame)          : 0.041
Stream size                 : 632 MiB (93%)
Encoded date                : UTC 2017-10-04 06:40:10
Tagged date                 : UTC 2017-10-04 06:40:10
Color range                 : Limited
Color primaries             : BT.709
Transfer characteristics    : BT.709
Matrix coefficients         : BT.709

Audio
ID                          : 2
Format                      : AAC
Format/Info                 : Advanced Audio Codec
Format profile              : LC
Codec ID                    : mp4a-40-2
Duration                    : 47 min 7 s
Bit rate mode               : Variable
Bit rate                    : 126 kb/s
Channel(s)                  : 2 channels
Channel positions           : Front: L R
Sampling rate               : 44.1 kHz
Frame rate                  : 43.066 FPS (1024 SPF)
Compression mode            : Lossy
Stream size                 : 42.3 MiB (6%)
Default                     : Yes
Alternate group             : 1
Encoded date                : UTC 2017-10-04 06:31:35
Tagged date                 : UTC 2017-10-04 06:31:35










Έχει επεξεργασθεί από τον/την POPIKOSTAS στις Σαβ Δεκ 09, 2017 6:15 am, 9 φορές συνολικά

Επισκόπηση του προφίλ των χρηστών

#2
 POPIKOSTAS


Προστέθηκαν 6-10.

Επισκόπηση του προφίλ των χρηστών

#3
 POPIKOSTAS


Προστέθηκαν 16-20.

Επισκόπηση του προφίλ των χρηστών

#4
 POPIKOSTAS


Προστέθηκαν 21-25.

Επισκόπηση του προφίλ των χρηστών

#5
 POPIKOSTAS


Προστέθηκαν 26-30.

Επισκόπηση του προφίλ των χρηστών

#6
 POPIKOSTAS


Προστέθηκαν 36-40.

Επισκόπηση του προφίλ των χρηστών

#7
 POPIKOSTAS


Προστέθηκαν 41-45.

Επισκόπηση του προφίλ των χρηστών

#8
 POPIKOSTAS


Προστέθηκαν 46.

Επισκόπηση του προφίλ των χρηστών

#9
 POPIKOSTAS


Προστέθηκε το  48.

Επισκόπηση του προφίλ των χρηστών

#10
 POPIKOSTAS


Προστέθηκε το 49.

Επισκόπηση του προφίλ των χρηστών

#11
 POPIKOSTAS


Προστέθηκε το 50.

Επισκόπηση του προφίλ των χρηστών

Επισκόπηση προηγούμενης Θ.Ενότητας Επισκόπηση επόμενης Θ.Ενότητας Επιστροφή στην κορυφή  Μήνυμα [Σελίδα 1 από 1]


Δικαιώματα σας στην κατηγορία αυτή
Δεν μπορείτε να απαντήσετε στα Θέματα αυτής της Δ.Συζήτησης

Τρόποι Κοινοποίησης:
URL:
BBCode:
HTML: