Μη Συνδεδεμενος Παρακαλώ συνδεθείτε ή εγγραφείτε

Επισκόπηση προηγούμενης Θ.Ενότητας Επισκόπηση επόμενης Θ.Ενότητας Πήγαινε κάτω  Μήνυμα [Σελίδα 1 από 1]

#1
 POPIKOSTAS




COFFEE AND CIGARETTES - ΚΑΦΕΣ ΚΑΙ ΤΣΙΓΑΡΑ (2003) DVDRip - ΕΝΣΩΜΑΤΩΜΕΝΟΙ ΥΠΟΤΙΤΛΟΙ



Σενάριο - Σκηνοθεσία: Jim Jarmusch
Ηθοποιοί: Bill Murray, Tom Waits, Roberto Benigni, Steven Wright, Iggy Pop, Cate Blanchett, Steve Buscemi,
Φωτογραφία: Tom DiCillo, Frederick Elmes, Ellen Kuras, Robby Muller
Μοντάζ: Jim Jarmusch, Terry Katz, Melody London, Jay Rabinowitz
Έτος: 2003
Διάρκεια: 92'
Χώρα: ΗΠΑ, Ιαπωνία, Ιταλία
Γλώσσα: Αγγλικά
Υπότιτλοι: Ελληνικά (ενσωματωμένοι στο container)
Χρώμα: Ασπρόμαυρο
DVDRip, SubRip, Προσαρμογή-Συγχρονισμός: Lafistios
Source: PAL DVD9



ΥΠΟΘΕΣΗ

Συρραφή από έντεκα σκετς γυρισμένα σποραδικά από το 1986 ως το 2003, με κοινό παρονομαστή τους την καθημερινή «ιεροτελεστία» του καφέ και του τσιγάρου και την ικανότητα του Τζάρμους να συλλαμβάνει μέσα από τον φακό του την μοναδική γοητεία τέτοιων εφήμερων στιγμών. Η αισθητική τους (σκηνοθετικός μινιμαλισμός, ασπρόμαυρη φωτογραφία υψηλού κοντράστ) και η «λογική» τους (εστίαση στο φαινομενικά ανούσιο και ασήμαντο, «ακατέργαστοι», αυτοσχεδιαστικοί διάλογοι, «μπιχαβιοριστικό» χιούμορ) παραπέμπουν σαφώς στον πρώιμο Τζάρμους, αυτόν των αρχών της δεκαετίας του '80.

Το αποτέλεσμα, ένα χαριτωμένο φιλμικό καπρίτσιο, είναι άνισο (δεν είναι όλα τα σκετς το ίδιο ευρηματικά), παρακολουθείται ωστόσο ευχάριστα, από «θεριακλήδες» και μη, κύρια χάρη στο «ροκ εν ρολ» καστ του από γνωστούς ηθοποιούς (Κέιτ Μπλάνσετ, Μπιλ Μάρεϊ, Στιβ Μπουσέμι, Αλφρεντ Μολίνα, Στιβ Κούγκαν, Ρομπέρτο Μπενίνι) και μουσικούς (Ιγκι Ποπ, Τομ Γουέιτς, αμφότερα τα μέλη των White Stripes, GZA και ΡΖΑ των Wu-Tang Clan) που παίζουν τους εαυτούς τους σε εντελώς απροσδόκητα set ups...
                               Πηγή: Ειρήνη Kατσουνάκη (movieworld.gr)



[video][Πρέπει να είστε εγγεγραμμένοι και συνδεδεμένοι για να δείτε αυτόν το σύνδεσμο.]



Κώδικας:
http://www.imdb.com/title/tt0379217/

ΤΕΧΝΙΚΑ ΧΑΡΑΚΤΗΡΙΣΤΙΚΑ

Σπόιλερ:

General

Complete name                            : Coffee and Cigarettes.2003.DVDRip.x264.AC3.mkv
Format                                   : Matroska
Format version                           : Version 4 / Version 2
File size                                : 1.33 GiB
Duration                                 : 1h 32mn
Overall bit rate                         : 2 057 Kbps
Encoded date                             : UTC 2017-10-03T05:36:32Z
Writing application                      : HandBrake 1.0.7 2017040900
Writing library                          : Lavf57.7.2

Video
ID                                       : 1
Format                                   : AVC
Format/Info                              : Advanced Video Codec
Format profile                           : High@L4.1
Format settings, CABAC                   : Yes
Format settings, ReFrames                : 4 frames
Codec ID                                 : V_MPEG4/ISO/AVC
Duration                                 : 1h 32mn
Bit rate                                 : 1 600 Kbps
Width                                    : 720 pixels
Height                                   : 400 pixels
Display aspect ratio                     : 16:9
Frame rate mode                          : Constant
Frame rate                               : 25.000 fps
Color space                              : YUV
Chroma subsampling                       : 4:2:0
Bit depth                                : 8 bits
Scan type                                : Progressive
Bits/(Pixel*Frame)                       : 0.222
Stream size                              : 1.01 GiB (76%)
Writing library                          : x264 core 148 r2708 86b7198
Default                                  : Yes
Forced                                   : No
Color range                              : Limited
Color primaries                          : BT.601 PAL
Transfer characteristics                 : BT.709
Matrix coefficients                      : BT.601

Audio
ID                                       : 2
Format                                   : AC-3
Format/Info                              : Audio Coding 3
Format settings, Endianness              : Big
Codec ID                                 : A_AC3
Duration                                 : 1h 32mn
Bit rate mode                            : Constant
Bit rate                                 : 448 Kbps
Channel(s)                               : 6 channels
Channel positions                        : Front: L C R, Side: L R, LFE
Sampling rate                            : 48.0 KHz
Frame rate                               : 31.250 fps (1536 SPF)
Bit depth                                : 16 bits
Compression mode                         : Lossy
Stream size                              : 296 MiB (22%)
Title                                    : Surround
Language                                 : English
Service kind                             : Complete Main
Default                                  : Yes
Forced                                   : No

Text
ID                                       : 3
Format                                   : VobSub
Codec ID                                 : S_VOBSUB
Codec ID/Info                            : Picture based subtitle format used on DVDs
Language                                 : Greek
Default                                  : Yes
Forced                                   : Yes








Επισκόπηση προηγούμενης Θ.Ενότητας Επισκόπηση επόμενης Θ.Ενότητας Επιστροφή στην κορυφή  Μήνυμα [Σελίδα 1 από 1]


Δικαιώματα σας στην κατηγορία αυτή
Δεν μπορείτε να απαντήσετε στα Θέματα αυτής της Δ.Συζήτησης

Τρόποι Κοινοποίησης:
URL:
BBCode:
HTML: