Μη Συνδεδεμενος Παρακαλώ συνδεθείτε ή εγγραφείτε

Επισκόπηση προηγούμενης Θ.Ενότητας Επισκόπηση επόμενης Θ.Ενότητας Πήγαινε κάτω  Μήνυμα [Σελίδα 1 από 1]

#1
 loufjohn


ΣΤΗΝ ΥΓΕΙΑ ΜΑΣ ΡΕ ΠΑΙΔΙΑ (2017-) ΣΚΑΪ TVRip AVI HD




[Πρέπει να είστε εγγεγραμμένοι και συνδεδεμένοι για να δείτε αυτόν το σύνδεσμο.]

Οι παρέες γράφουν ιστορία!.. Και όταν περνάνε καλά… γράφουν μουσική. Η μεγαλύτερη παρέα φέτος είναι στον ΣΚΑΪ.

Με τα τραγούδια που μας ενώνουν. Τις μελωδίες που μας ταξιδεύουν. Τους στίχους που μπαίνουν στα χείλη όλων μας…


[Πρέπει να είστε εγγεγραμμένοι και συνδεδεμένοι για να δείτε αυτόν το σύνδεσμο.]




[Πρέπει να είστε εγγεγραμμένοι και συνδεδεμένοι για να δείτε αυτόν το σύνδεσμο.]



   General
      Complete name :YGEIA.30.9.2017.720p.mp4
      Format : MPEG-4
      Format profile : Base Media / Version 2
      Codec ID : mp42 (isom/mp42)
      File size : 1.90 GiB
      Duration : 3 h 0 min
      Overall bit rate mode : Variable
      Overall bit rate : 1 507 kb/s
      Encoded date : UTC 2017-10-01 07:04:22
      Tagged date : UTC 2017-10-01 07:04:22
      gsst : 0
      gstd : 10836543
   Video [Πρέπει να είστε εγγεγραμμένοι και συνδεδεμένοι για να δείτε αυτόν το σύνδεσμο.]
      ID : 1
      Format : AVC
      Format/Info : Advanced Video Codec
      Format profile : Main@L3.1
      Format settings, CABAC : Yes
      Format settings, ReFrames : 3 frames
      Codec ID : avc1
      Codec ID/Info : Advanced Video Coding
      Duration : 3 h 0 min
      Bit rate : 1 378 kb/s
      Width : 1 280 pixels
      Height : 720 pixels
      Display aspect ratio : 16:9
      Frame rate mode : Constant
      Frame rate : 25.000 FPS
      Color space : YUV
      Chroma subsampling : 4:2:0
      Bit depth : 8 bits
      Scan type : Progressive
      Bits/(Pixel*Frame) : 0.060
      Stream size : 1.74 GiB (91%)
      Title : ISO Media file produced by Google Inc. Created on: 10/01/2017.
      Encoded date : UTC 2017-10-01 07:04:22
      Tagged date : UTC 2017-10-01 07:04:22
      Color range : Limited
      Color primaries : BT.709
      Transfer characteristics : BT.709
      Matrix coefficients : BT.709
   Audio [Πρέπει να είστε εγγεγραμμένοι και συνδεδεμένοι για να δείτε αυτόν το σύνδεσμο.]
      ID : 2
      Format : AAC
      Format/Info : Advanced Audio Codec
      Format profile : LC
      Codec ID : 40
      Duration : 3 h 0 min
      Bit rate mode : Variable
      Bit rate : 126 kb/s
      Channel(s) : 2 channels
      Channel positions : Front: L R
      Sampling rate : 44.1 kHz
      Frame rate : 43.066 FPS (1024 spf)
      Compression mode : Lossy
      Stream size : 162 MiB (8%)
      Title : ISO Media file produced by Google Inc. Created on: 10/01/2017.
      Encoded date : UTC 2017-10-01 07:04:22
      Tagged date : UTC 2017-10-01 07:04:22 

 
[Πρέπει να είστε εγγεγραμμένοι και συνδεδεμένοι για να δείτε αυτόν το σύνδεσμο.]



[Πρέπει να είστε εγγεγραμμένοι και συνδεδεμένοι για να δείτε αυτόν το σύνδεσμο.]


[Πρέπει να είστε εγγεγραμμένοι και συνδεδεμένοι για να δείτε αυτόν το σύνδεσμο.]



[Πρέπει να είστε εγγεγραμμένοι και συνδεδεμένοι για να δείτε αυτόν το σύνδεσμο.]







Έχει επεξεργασθεί από τον/την loufjohn στις Κυρ Απρ 08, 2018 10:25 am, 23 φορές συνολικά

#2
 loufjohn


ΑΝΕΒΗΚΕ Η ΕΚΠΟΜΠΗ ΤΗΣ 21/10/2017

#3
 loufjohn


ΑΝΕΒΗΚΕ Η ΕΚΠΟΜΠΗ ΤΗΣ 28/10/2017

#4
 loufjohn


ΑΝΕΒΗΚΕ ΤΟ ΕΠΕΙΣΟΔΙΟ ΤΗΣ 04/11/2017

#5
 loufjohn


ΑΝΕΒΗΚΕ ΕΩΣ ΤΟ ΕΠΕΙΣΟΔΙΟ ΤΗΣ 11/11/2017

#6
 loufjohn


ΑΝΕΒΗΚΕ ΕΩΣ ΤΗΝ ΕΚΠΟΜΠΗ ΤΗΣ 18/11/2017

#7
 loufjohn


ΑΝΕΒΗΚΕ ΕΩΣ ΤΟ ΕΠΕΙΣΟΔΙΟ ΤΗΣ 25/11/2017

#8
 loufjohn


ΑΝΕΒΗΚΕ ΕΩΣ 09 (2/12/2017)

#9
 loufjohn


ΑΝΕΒΗΚΕ Η ΕΚΠΟΜΠΗ ΤΗΣ (9/12/2017)

#10
 loufjohn


ΑΝΕΒΗΚΕ ΕΩΣ 11 (16/12/2017)

#11
 loufjohn


ΑΝΕΒΗΚΕ Η ΕΚΠΟΜΠΗ ΤΗΣ ΠΑΡΑΜΟΝΗΣ ΤΩΝ ΧΡΙΣΤΟΥΓΕΝΝΩΝ

#12
 loufjohn


ΑΝΕΒΗΚΕ Η ΕΚΠΟΜΠΗ ΤΗΣ ΠΑΡΑΜΟΝΗΣ ΠΡΩΤΟΧΡΟΝΙΑΣ

#13
 loufjohn


ΑΝΕΒΗΚΕ Η ΕΚΠΟΜΠΗ ΤΗΣ 13/1/2018

#14
 loufjohn


ΑΝΕΒΗΚΕ ΕΩΣ 15 (20/01/2018)

#15
 loufjohn


ΑΝΕΒΗΚΕ ΤΟ 16 (27/1/2018)

#16
 loufjohn


ΑΝΕΒΗΚΕ ΤΟ ΕΠΕΙΣΟΔΙΟ ΤΗΣ 3/2/2018

#17
 loufjohn


ΑΝΕΒΗΚΕ ΕΩΣ ΤΟ 18 (10/2/2018)

#18
 loufjohn


ΑΝΕΒΗΚΕ Η ΕΚΠΟΜΠΗ ΤΗΣ 17/2/2018

#19
 loufjohn


ΑΝΕΒΗΚΕ ΕΩΣ 24/2/2018

#20
 loufjohn


ΑΝΕΒΗΚΕ ΕΚΠΟΜΠΗ ΤΗΣ 3/3/2018

#21
 loufjohn


ΑΝΕΒΗΚΕ ΤΟ ΕΠΕΙΣΟΔΙΟ ΤΗΣ 10/3/2018

#22
 loufjohn


ΑΝΕΒΗΚΕ ΕΩΣ 17/3/2018

#23
 loufjohn


ΑΝΕΒΗΚΕ ΤΟ 24 (31/3/2018)

#24
 loufjohn


ΑΝΕΒΗΚΕ Η ΕΚΠΟΜΠΗ (7/4/2018)

Επισκόπηση προηγούμενης Θ.Ενότητας Επισκόπηση επόμενης Θ.Ενότητας Επιστροφή στην κορυφή  Μήνυμα [Σελίδα 1 από 1]


Δικαιώματα σας στην κατηγορία αυτή
Δεν μπορείτε να απαντήσετε στα Θέματα αυτής της Δ.Συζήτησης

Τρόποι Κοινοποίησης:
URL:
BBCode:
HTML: