Μη Συνδεδεμενος Παρακαλώ συνδεθείτε ή εγγραφείτε

Μετάβαση στη σελίδα : 1, 2, 3  Επόμενο

Επισκόπηση προηγούμενης Θ.Ενότητας Επισκόπηση επόμενης Θ.Ενότητας Πήγαινε κάτω  Μήνυμα [Σελίδα 1 από 3]

#1
 loufjohn


ΧΑΛΚΙΝΑ ΧΡΟΝΙΑ (2017-) ΡΙΚ WEBRip






[Πρέπει να είστε εγγεγραμμένοι και συνδεδεμένοι για να δείτε αυτόν το σύνδεσμο.]

Η νέα δραματική καθημερινή σειρά εποχής του ΡΙΚ που θα ξεκινήσει το Σεπτέμβριο και θα καλύπτει την prime timeζώνη του σταθμού ονομάζεται «Χάλκινα Χρόνια».
Η υπόθεση της σειράς τοποθετείται μετά το Β’ Παγκόσμιο Πόλεμο και επικεντρώνεται σε διάφορες ιστορίες καθημερινών ανρθώπων, που έχουν, μέσα στις πολιτικές
και κοινωνικές αλλαγές της εποχής, τα δικά τους πάθη, ανάγκες και όνειρα. Σεναριογράφοι αυτής της σειράς είναι η Δέσποινα Πυρκετή και η Σοφία Σοφοκλέους,
στο σκηνοθετικό τιμόνι βρίσκεται η Κόριννα Αβρααμίδου και ο Χρίστος Νικολάου, ενώ στην παραγωγή βρίσκεται η Galinis Productions. Το πρωταγωνιστικό καστ αποτελείται
από τους:  Λένια Σορόκου, Αντρέα Τσέλεπο, Αντωνία Χαραλάμπους, Κύνθια Παυλίδου, Άννα Γιαγκιόζη, Γιάννα Λευκάτη, Σοφοκλή Κασκαούνια, Πανίκο Πιλάλη,
Αντρέα Παπαμιχαλόπουλο, Αστέριο Πελτέκη, Μαρία Φιακά, Νάτια Χαραλάμπους, Νίκη Δραγούμη και τον Σίμο Τσιάκκα. O Κώστας Κακογιάννης επιμελείται για άλλη
μια φορά τη μουσική επένδυση, ενώ τα σκηνικά και τα κοστούμια ο Λάκης Γενεθλής.

[Πρέπει να είστε εγγεγραμμένοι και συνδεδεμένοι για να δείτε αυτόν το σύνδεσμο.]




[Πρέπει να είστε εγγεγραμμένοι και συνδεδεμένοι για να δείτε αυτόν το σύνδεσμο.]


   General
      Complete name :XALKINA.EP.01.avi
      Format : AVI
      Format/Info : Audio Video Interleave
      File size : 984 MiB
      Duration : 42 min 54 s
      Overall bit rate : 3 205 kb/s
   Video [Πρέπει να είστε εγγεγραμμένοι και συνδεδεμένοι για να δείτε αυτόν το σύνδεσμο.]
      ID : 0
      Format : AVC
      Format/Info : Advanced Video Codec
      Format profile : Baseline@L3
      Format settings, CABAC : No
      Format settings, ReFrames : 1 frame
      Codec ID : H264
      Duration : 42 min 54 s
      Bit rate : 3 063 kb/s
      Width : 640 pixels
      Height : 360 pixels
      Display aspect ratio : 16:9
      Frame rate : 25.000 FPS
      Color space : YUV
      Chroma subsampling : 4:2:0
      Bit depth : 8 bits
      Scan type : Progressive
      Bits/(Pixel*Frame) : 0.532
      Stream size : 940 MiB (96%)
      Writing library : x264 core 146 r2538 121396c
     
   Audio [Πρέπει να είστε εγγεγραμμένοι και συνδεδεμένοι για να δείτε αυτόν το σύνδεσμο.]
      ID : 1
      Format : MPEG Audio
      Format version : Version 1
      Format profile : Layer 3
      Codec ID : 55
      Codec ID/Hint : MP3
      Duration : 42 min 54 s
      Bit rate mode : Constant
      Bit rate : 128 kb/s
      Channel(s) : 2 channels
      Sampling rate : 48.0 kHz
      Compression mode : Lossy
      Stream size : 39.3 MiB (4%)
      Alignment : Aligned on interleaves
      Interleave, duration : 24  ms (0.60 video frame)



[Πρέπει να είστε εγγεγραμμένοι και συνδεδεμένοι για να δείτε αυτόν το σύνδεσμο.]



[Πρέπει να είστε εγγεγραμμένοι και συνδεδεμένοι για να δείτε αυτόν το σύνδεσμο.]


[Πρέπει να είστε εγγεγραμμένοι και συνδεδεμένοι για να δείτε αυτόν το σύνδεσμο.]



[Πρέπει να είστε εγγεγραμμένοι και συνδεδεμένοι για να δείτε αυτόν το σύνδεσμο.]







Έχει επεξεργασθεί από τον/την loufjohn στις Πεμ Ιαν 18, 2018 9:34 am, 50 φορές συνολικά

Επισκόπηση του προφίλ των χρηστών

#2
 loufjohn


ΑΝΕΒΗΚΕ ΕΩΣ ΤΟ 27

Επισκόπηση του προφίλ των χρηστών

#3
 loufjohn


ΑΝΕΒΗΚΕ ΕΩΣ 28

Επισκόπηση του προφίλ των χρηστών

#4
 loufjohn


ΑΝΕΒΗΚΕ ΕΩΣ ΤΟ 29

Επισκόπηση του προφίλ των χρηστών

#5
 loufjohn


ΑΝΕΒΗΚΕ ΕΩΣ ΤΟ 30

Επισκόπηση του προφίλ των χρηστών

#6
 loufjohn


ΑΝΕΒΗΚΕ ΕΩΣ ΤΟ 31

Επισκόπηση του προφίλ των χρηστών

#7
 loufjohn


ΑΝΕΒΗΚΕ ΕΩΣ ΤΟ 32

Επισκόπηση του προφίλ των χρηστών

#8
 loufjohn


ΑΝΕΒΗΚΕ ΕΩΣ ΤΟ 33

Επισκόπηση του προφίλ των χρηστών

#9
 loufjohn


ΑΝΕΒΗΚΕ ΕΩΣ ΤΟ 34

Επισκόπηση του προφίλ των χρηστών

#10
 loufjohn


ΑΝΕΒΗΚΕ ΕΩΣ ΤΟ 35

Επισκόπηση του προφίλ των χρηστών

#11
 loufjohn


ΑΝΕΒΗΚΕ ΕΩΣ ΤΟ 36

Επισκόπηση του προφίλ των χρηστών

#12
 loufjohn


ΑΝΕΒΗΚΕ ΕΩΣ ΤΟ 37

Επισκόπηση του προφίλ των χρηστών

#13
 loufjohn


ΑΝΕΒΗΚΕ ΕΩΣ ΤΟ 38

Επισκόπηση του προφίλ των χρηστών

#14
 loufjohn


ΑΝΕΒΗΚΕ ΕΩΣ 39

Επισκόπηση του προφίλ των χρηστών

#15
 loufjohn


ΑΝΕΒΗΚΕ ΕΩΣ ΤΟ 40

Επισκόπηση του προφίλ των χρηστών

#16
 loufjohn


ΑΝΕΒΗΚΕ ΕΩΣ ΤΟ 41

Επισκόπηση του προφίλ των χρηστών

#17
 loufjohn


ΑΝΕΒΗΚΕ ΕΩΣ ΤΟ 42

Επισκόπηση του προφίλ των χρηστών

#18
 loufjohn


ΑΝΕΒΗΚΕ ΕΩΣ ΤΟ 44

Επισκόπηση του προφίλ των χρηστών

#19
 loufjohn


ΑΝΕΒΗΚΕ ΕΩΣ ΤΟ 45

Επισκόπηση του προφίλ των χρηστών

#20
 loufjohn


ΑΝΕΒΗΚΕ ΕΩΣ 47

Επισκόπηση του προφίλ των χρηστών

#21
 loufjohn


ΑΝΕΒΗΚΕ ΕΩΣ 48

Επισκόπηση του προφίλ των χρηστών

#22
 loufjohn


ΑΝΕΒΗΚΕ ΕΩΣ 49

Επισκόπηση του προφίλ των χρηστών

#23
 loufjohn


ΑΝΕΒΗΚΕ ΕΩΣ ΤΟ 50

Επισκόπηση του προφίλ των χρηστών

#24
 loufjohn


ΑΝΕΒΗΚΕ ΕΩΣ 51

Επισκόπηση του προφίλ των χρηστών

#25
 loufjohn


ΑΝΕΒΗΚΕ ΕΩΣ 54

Επισκόπηση του προφίλ των χρηστών

Επισκόπηση προηγούμενης Θ.Ενότητας Επισκόπηση επόμενης Θ.Ενότητας Επιστροφή στην κορυφή  Μήνυμα [Σελίδα 1 από 3]

Μετάβαση στη σελίδα : 1, 2, 3  Επόμενο


Δικαιώματα σας στην κατηγορία αυτή
Δεν μπορείτε να απαντήσετε στα Θέματα αυτής της Δ.Συζήτησης

Τρόποι Κοινοποίησης:
URL:
BBCode:
HTML: