Μη Συνδεδεμενος Παρακαλώ συνδεθείτε ή εγγραφείτε

Επισκόπηση προηγούμενης Θ.Ενότητας Επισκόπηση επόμενης Θ.Ενότητας Πήγαινε κάτω  Μήνυμα [Σελίδα 1 από 1]

#1
 POPIKOSTAS




THE MAN WHO CRIED-Ο ΑΝΔΡΑΣ ΠΟΥ ΕΚΛΑΙΓΕ (2000) DVDRip - ΕΝΣΩΜΑΤΩΜΕΝΟΙ ΥΠΟΤΙΤΛΟΙ



Σενάριο - Σκηνοθεσία: Sally Potter
Ηθοποιοί: Christina Ricci, Cate Blanchett, Johnny Depp, John Turturro, Oleg Yankovskiy
Μουσική: Osvaldo Golijov
Φωτογραφία: Sacha Vierny
Μοντάζ: Herve Schneid 
Έτος: 2000
Διάρκεια: 96'
Είδος:  Drama | Music | Romance
Χώρα: Μ. Βρετανία, Γαλλία
Γλώσσα: Αγγλικά
Υπότιτλοι: Ελληνικά, ενσωματωμένοι στο container και σε αρχείο srt, από το original DVD (υποτιτλισμός: Odeon S.A.).
Χρώμα: Έγχρωμο
DVDRip, SubRip, Προσαρμογή-Συγχρονισμός: Lafistios
Source: PAL DVD5

Στη Ρωσσία του '20 οι Εβραίοι βρίσκονται για μια ακόμη φορά στόχοι διωγμών. Η πεντάχρονη Suzi φυγαδεύεται από τους γονείς της για να γλυτώσει το διωγμό. Προορισμός της είναι η Αμερική, για να συναντήσει τον πατέρα της. Δεν τα καταφέρνει όμως αφού οι συνοδοί της πέφτουν θύματα απάτης καταλήγοντας τελικά στην Αγγλία. Δέκα χρόνια αργότερα κι αφού ανακαλύψει το χάρισμα της ωραίας φωνής της, η Suzi αποφασίζει να φύγει για το Παρίσι ώστε να μαζέψει χρήματα και να πραγματοποιήσει επιτέλους το ταξίδι της στην Αμερική. Στο Παρίσι θα γνωρίσει τη Lola, μια σαγηνευτική και φιλόδοξη Ρωσίδα και θα γίνει προστατευόμενή της.

Μαζί θα καταφέρουν να βρουν δουλειά στην όπερα, όπου και θα συναντήσουν τον Dante, έναν εκπληκτικό τενόρο. Η Suzi αρχικά θα γοητευτεί από τη μαγευτική φωνή του, που όπως όμως μαθαίνει δεν ανταποκρίνεται και στον χαρακτήρα του. Η Suzi θα γνωρίσει τον Sezar, έναν τσιγγάνο εκπαιδευτή αλόγων, ο οποίος τη μαγεύει με το ατίθασο πνεύμα του. Ο ένας στο πρόσωπο του άλλου αναγνωρίζει ένα σύμμαχο απέναντι στις προσβολές και τις διώξεις που τους κυκλώνουν ασφυκτικά. Οι Ναζί κυριαρχούν σε όλη την Ευρώπη και οι δυο τους βρίσκονται παγιδευμένοι στη δίνη του πολέμου.

Η Sally Potter επιστρέφει με μια ενδιαφέρουσα ταινία. Το The Man Who Cried είναι μια πολυδιάστατη ιστορία με φόντο τον δεύτερο παγκόσμιο πόλεμο και τους ήρωες στο προσκήνιο. Το Casting είναι εντυπωσιακό με την Cate Blanchett να κλέβει την παράσταση, και τον Jonny Depp να γοητεύει για μια ακόμη φορά σαν τσιγγάνος. Προσεγμένη είναι και η αναπαράσταση της εποχής, που μας κάνει να αισθανόμαστε ότι έχουμε μεταφερθεί στο Παρίσι του '30.
                  Θανάσης Γεντίμης (cinemanews.gr)



[video][Πρέπει να είστε εγγεγραμμένοι και συνδεδεμένοι για να δείτε αυτόν το σύνδεσμο.]

Κώδικας:
http://www.imdb.com/title/tt0206917/

ΤΕΧΝΙΚΑ ΧΑΡΑΚΤΗΡΙΣΤΙΚΑ

Σπόιλερ:

General
Complete name                            : The Man Who Cried 2000 DVDRip x264 AC3.mkv
Format                                   : Matroska
Format version                           : Version 2
File size                                : 1.24 GiB
Duration                                 : 1h 35mn
Overall bit rate                         : 1 862 Kbps
Writing application                      : HandBrake 0.9.9
Writing library                          : libmkv 0.6.5

Video
ID                                       : 1
Format                                   : AVC
Format/Info                              : Advanced Video Codec
Format profile                           : High@L4.1
Format settings                          : CABAC / 4 Ref Frames
Format settings, CABAC                   : Yes
Format settings, ReFrames                : 4 frames
Codec ID                                 : V_MPEG4/ISO/AVC
Duration                                 : 1h 35mn
Bit rate                                 : 1 600 Kbps
Width                                    : 720 pixels
Height                                   : 400 pixels
Display aspect ratio                     : 16:9
Frame rate mode                          : Constant
Frame rate                               : 25.000 fps
Color space                              : YUV
Chroma subsampling                       : 4:2:0
Bit depth                                : 8 bits
Scan type                                : Progressive
Bits/(Pixel*Frame)                       : 0.222
Stream size                              : 1.05 GiB (84%)
Writing library                          : x264 core 130 r2273 b3065e6
Language                                 : English
Default                                  : Yes
Forced                                   : No
Color range                              : Limited
Color primaries                          : BT.601 PAL
Transfer characteristics                 : BT.709
Matrix coefficients                      : BT.601

Audio
ID                                       : 2
Format                                   : AC-3
Format/Info                              : Audio Coding 3
Format settings, Endianness              : Big
Codec ID                                 : A_AC3
Duration                                 : 1h 35mn
Bit rate mode                            : Constant
Bit rate                                 : 256 Kbps
Channel(s)                               : 6 channels
Channel positions                        : Front: L C R, Side: L R, LFE
Sampling rate                            : 48.0 KHz
Frame rate                               : 31.250 fps (1536 SPF)
Bit depth                                : 16 bits
Compression mode                         : Lossy
Stream size                              : 175 MiB (14%)
Language                                 : English
Service kind                             : Complete Main
Default                                  : Yes
Forced                                   : No

Text
ID                                       : 3
Format                                   : VobSub
Codec ID                                 : S_VOBSUB
Codec ID/Info                            : Picture based subtitle format used on DVDs
Language                                 : Greek
Default                                  : No
Forced                                   : No








Επισκόπηση προηγούμενης Θ.Ενότητας Επισκόπηση επόμενης Θ.Ενότητας Επιστροφή στην κορυφή  Μήνυμα [Σελίδα 1 από 1]


Δικαιώματα σας στην κατηγορία αυτή
Δεν μπορείτε να απαντήσετε στα Θέματα αυτής της Δ.Συζήτησης

Τρόποι Κοινοποίησης:
URL:
BBCode:
HTML: