Μη Συνδεδεμενος Παρακαλώ συνδεθείτε ή εγγραφείτε

Επισκόπηση προηγούμενης Θ.Ενότητας Επισκόπηση επόμενης Θ.Ενότητας Πήγαινε κάτω  Μήνυμα [Σελίδα 1 από 1]

#1
 POPIKOSTAS




THE LAST HURRAH (1958) DVDRip - ΞΕΧΩΡΙΣΤΟΙ ΥΠΟΤΙΤΛΟΙ

Σκηνοθεσία: John Ford
Σενάριο: Frank S. Nugent , Edwin O'Connor
Ηθοποιοί: Donald Crisp, Ricardo Cortez, Basil Ruysdael, Frank McHugh, Spencer Tracy, Edward Brophy, Pat O'Brien, James Gleason, Basil Rathbone, John Carradine, Carleton Young, Jeffrey Hunter, Willis Bouchey, Dianne Foster
Είδος ταινίας: Comedy, Drama
Χώρα παραγωγής: USA

Υποτιτλισμός: Spenbill

Δεκαετία του 1950 και όλα μοιάζουν να έχουν αλλάξει με την εισβολή της τηλεόρασης στην καθημερινότητα των πολλών. Αυτή την εποχή επιλέγει ο βετεράνος δήμαρχος, και ιρλανδός καθολικός, Φρανκ Σκέφινγκτον για να δώσει μία τελευταία ευκαιρία στον εαυτό του στον στίβο της πολιτικής. Αυτές οι εκλογές όμως δεν μοιάζουν με τις προηγούμενες, και τα παλιά ήθη έρχονται σε σύγκρουση με τα νέα, ειδικά μετά την επίθεση που δέχεται ο δήμαρχος από τον ανιψιό του, Άνταμ Κόφιλντ, έναν πικραμένο δημοσιογράφο.

[video][Πρέπει να είστε εγγεγραμμένοι και συνδεδεμένοι για να δείτε αυτόν το σύνδεσμο.]



Κώδικας:
http://www.imdb.com/title/tt0051845/

ΤΕΧΝΙΚΑ ΧΑΡΑΚΤΗΡΙΣΤΙΚΑ

Σπόιλερ:

General

Complete name : The Last Hurrah (1958) DVDRip XviD AC3 SN.avi

Format : AVI

Format/Info : Audio Video Interleave

File size : 1.41 GiB

Duration : 2h 1mn

Overall bit rate : 1 661 Kbps

Writing application : FairUse Wizard - [Πρέπει να είστε εγγεγραμμένοι και συνδεδεμένοι για να δείτε αυτόν το σύνδεσμο.]

Writing library : The best and REALLY easy backup tool

Video

ID : 0

Format : MPEG-4 Visual

Format profile : Advanced Simple@L5

Format settings, BVOP : 1

Format settings, QPel : No

Format settings, GMC : No warppoints

Format settings, Matrix : Default (MPEG)

Muxing mode : Packed bitstream

Codec ID : XVID

Codec ID/Hint : XviD

Duration : 2h 1mn

Bit rate : 1 396 Kbps

Width : 672 pixels

Height : 368 pixels

Display aspect ratio : 16:9

Frame rate : 23.976 fps

Color space : YUV

Chroma subsampling : 4:2:0

Bit depth : 8 bits

Scan type : Progressive

Compression mode : Lossy

Bits/(Pixel*Frame) : 0.235

Stream size : 1.18 GiB (84%)

Writing library : XviD 1.2.0.dev47 (UTC 2006-11-01)

Audio

ID : 1

Format : AC-3

Format/Info : Audio Coding 3

Mode extension : CM (complete main)

Codec ID : 2000

Duration : 2h 1mn

Bit rate mode : Constant

Bit rate : 256 Kbps

Channel(s) : 2 channels

Channel positions : Front: L R

Sampling rate : 48.0 KHz

Bit depth : 16 bits

Compression mode : Lossy

Stream size : 222 MiB (15%)

Alignment : Split accross interleaves

Interleave, duration : 42 ms (1.00 video frame)

Interleave, preload duration : 500 ms








Επισκόπηση προηγούμενης Θ.Ενότητας Επισκόπηση επόμενης Θ.Ενότητας Επιστροφή στην κορυφή  Μήνυμα [Σελίδα 1 από 1]


Δικαιώματα σας στην κατηγορία αυτή
Δεν μπορείτε να απαντήσετε στα Θέματα αυτής της Δ.Συζήτησης

Τρόποι Κοινοποίησης:
URL:
BBCode:
HTML: