Μη Συνδεδεμενος Παρακαλώ συνδεθείτε ή εγγραφείτε

Επισκόπηση προηγούμενης Θ.Ενότητας Επισκόπηση επόμενης Θ.Ενότητας Πήγαινε κάτω  Μήνυμα [Σελίδα 1 από 1]

#1
 POPIKOSTAS




LE DERNIER TRAPPEUR-LAST TRAPPER-Ο ΤΕΛΕΥΤΑΙΟΣ ΚΥΝΗΓΟΣ (2004) DVDRip - ΕΝΣΩΜΑΤΩΜΕΝΟΙ ΥΠΟΤΙΤΛΟΙ

Συντελεστές

Αυθεντικός Τίτλος: Le dernier trappeur
Είδος ταινίας:Documentary, Adventure
Σκηνοθεσία: Nicolas Vanier 
Σενάριο:  Nicolas Vanier 
Ηθοποιοί : Norman Winther, May Loo, Alex Van Bibber
Πρεμιέρα Στην Ελλάδα : 21 Ιανουαρίου 2005
Χώρα παραγωγής:France | Canada | Switzerland | Germany | Italy
Διανομή-Yποτιτλισμός:ODEON S.Α.
Διάρκεια: 94min
Γλώσσα: ΑΓΓΛΙΚΑ -ΓΑΛΛΙΚΑ
Πηγή:DVD9
Υπότιτλοι:Ελληνικοί Ενσωματωμένοι στο container και σε ξεχωριστό αρχείο (srt)
DVDrip-SUBrip: st0rm

Περιγραφή

Οι "πραγματικοί" παγιδευτές θηραμάτων των νεαρών μας χρόνων, όπως ο Τζακ Λόντον και ο Ντέιβι Κρόκετ, δεν υπάρχουν πια. Υπάρχει, όμως, μία σημαντική τελευταία ψυχή που ακόμα ζει σύμφωνα με την παλιά φιλοσοφία του παγιδευτή θηραμάτων που ζει ενωμένος με τη φύση. Ο τελευταίος παγιδευτής θηραμάτων λέγεται Νόρμαν. Είναι πενήντα ετών και ζει μαζί με την Νεμπράσκα, μία ινδιάνα της φυλής Νεχάνι. Ακολουθώντας τον Νόρμαν, την Νεμπράσκα και τα σκυλιά τους για έναν ολόκληρο χρόνο στον Βορρά, η ταινία αυτή μας βάζει στα χνάρια ενός αληθινού χαρακτήρα ρίχνοντας φως στο δράμα και τις μάχες που αποτελούν την καθημερινή πραγματικότητα αυτού του ανθρώπου και τις περιπέτειές του στις οποίες τα σκυλιά είναι οι βασικοί χαρακτήρες. “Ο τελευταίος Κυνηγός” είναι μία ταινία που σε βυθίζει απόλυτα στο μοναδικό περιβάλλον, ένα ταξίδι μύησης και εορτασμού ενός τρόπου ζωής που βρίσκεται σε απόλυτη αρμονία με τα ζώα και τη φύση. [cine.gr]

Κριτική 

Ο Τελευταίος Κυνηγός δεν είναι μια ταινία μυθοπλασίας ούτε όμως και αμιγώς ντοκιμαντέρ αλλά σαφώς πλησιάζει περισσότερο τον χαρακτήρα του τελευταίου. Ο Nicolas Vanier παρακολουθεί για ένα ολόκληρο χρόνο τα χνάρια ενός ανθρώπου που έχει απαρνηθεί τον πολιτισμό και τις ανέσεις του ζώντας από το κυνήγι και το ψάρεμα και φωτίζει την καθημερινότητα, τις περιπέτειες και τις μάχες του σ΄ένα κόσμο που θα μπορούσε να χαρακτηριστεί εύκολα από τους υπόλοιπους εχθρικός. Ο Νόρμαν όμως, που αποτελεί πραγματικό χαρακτήρα και όχι αποκύημα της φαντασίας κάποιου συγγραφέα ήσεναριογράφου, δίνει τον προσωπικό του αγώνα όχι μόνο για την επιβίωση του ίδιου αλλά και του φυσικού χώρου που τον φιλοξενεί, καθώς οι κίνδυνοι ενός πολιτισμού που καταστρέφει τους βιότοπους του πλανήτη απειλεί την περιοχή, κερδίζοντας ένα ανεκτίμητο δώρο, τη σπάνια ευκαιρία να δημιουργήσει μια αυθεντική σχέση με τη φύση.

Ο Nicolas Vanier και το συνεργείο του παρακολουθεί και καταγράφει την επιλογή αυτού του ανθρώπου να ζήσει κοντά στην άγρια φύση και αποτυπώνει τη δυναμική της ομορφιά μέσα από εξαιρετικά πλάνα που αιχμαλωτίζουν την ψυχρή υποδοχή του χειμώνα, τα λευκά τοπία, τις περιηγήσεις στην καταπράσινη φύση, τα χρώματα του πολικού σέλας, τα πεντακάθαρα νερά και τους οργανισμούς που εκμεταλλεύονται αλλά και ολοκληρώνουν τη μαγεία αυτής της γης. Η ιστορία αγάπης ανάμεσα σ’αυτόν το γενναίο άντρα και τη φύση γίνεται ακόμα πιο συναρπαστική καθώς η περίπτωση του Νόρμαν είναι αν όχι η μοναδική , εξαιρετικά σπάνια. Δεν ανήκει στην κατηγορία εκείνη των νέων παγιδευτών θηραμάτων που διευκολύνουν τη ζωή τους χρησιμοποιώντας εκσυγχρονισμένα μέσα τόσο στο κυνήγι όσο και στην επικοινωνία πράγμα που δημιουργεί ασφαλέστερες συνθήκες διαβίωσης σ’ένα αφιλόξενο τόπο.

Το Τελευταίος Κυνηγός γυρισμένο από την ίδια ομάδα παραγωγής που μας είχε χαρίσει τα «Ταξιδιάρικα πουλιά » και «Μικρόκοσμος» μας προσφέρει μια αυθεντική περιπέτεια επιβίωσης στη σαγηνευτική ομορφιά μιας «άγριας» περιοχής που σίγουρα θα μαγέψει τόσο με τη φωτογραφία (Thierry Machado) όσο και με την μουσική του (Krishna Levy) τους λάτρεις της φύσης αλλά θα εντυπωσιάσει τον καθένα.

Ελένη Ανδρεάδου Βαθμολογία: (8/10)

[video][Πρέπει να είστε εγγεγραμμένοι και συνδεδεμένοι για να δείτε αυτόν το σύνδεσμο.]



Κώδικας:
http://www.imdb.com/title/tt0395514/

ΤΕΧΝΙΚΑ ΧΑΡΑΚΤΗΡΙΣΤΙΚΑ

Σπόιλερ:

General

Complete name               : Last Trapper.2004.DVDRip.x264.AC3-5.1.mkv

Format                      : Matroska

Format version              : Version 2

File size                   : 1.24 GiB

Duration                    : 1h 41mn

Overall bit rate            : 1 754 Kbps

Writing application         : HandBrake 0.9.9

Writing library             : libmkv 0.6.5



Video

ID                          : 1

Format                      : AVC

Format/Info                 : Advanced Video Codec

Format profile              : Main@L4

Format settings, CABAC      : Yes

Format settings, ReFrames   : 4 frames

Codec ID                    : V_MPEG4/ISO/AVC

Duration                    : 1h 41mn

Bit rate                    : 1 300 Kbps

Width                       : 720 pixels

Height                      : 304 pixels

Display aspect ratio        : 2.35:1

Frame rate mode             : Constant

Frame rate                  : 25.000 fps

Color space                 : YUV

Chroma subsampling          : 4:2:0

Bit depth                   : 8 bits

Scan type                   : Progressive

Bits/(Pixel*Frame)          : 0.238

Stream size                 : 919 MiB (72%)

Writing library             : x264 core 130 r2273 b3065e6

Encoding settings           : cabac=1 / ref=1 / deblock=1:0:0 / analyse=0x1:0x111 / me=hex / subme=2 / psy=1 / psy_rd=1.00:0.00 / mixed_ref=0 / me_range=16 / chroma_me=1 / trellis=0 / 8x8dct=0 / cqm=0 / deadzone=21,11 / fast_pskip=1 / chroma_qp_offset=0 / threads=3 / lookahead_threads=1 / sliced_threads=0 / nr=0 / decimate=1 / interlaced=0 / bluray_compat=0 / constrained_intra=0 / bframes=3 / b_pyramid=2 / b_adapt=1 / b_bias=0 / direct=1 / weightb=1 / open_gop=0 / weightp=1 / keyint=250 / keyint_min=25 / scenecut=40 / intra_refresh=0 / rc_lookahead=10 / rc=2pass / mbtree=1 / bitrate=1300 / ratetol=1.0 / qcomp=0.60 / qpmin=0 / qpmax=69 / qpstep=4 / cplxblur=20.0 / qblur=0.5 / vbv_maxrate=20000 / vbv_bufsize=25000 / nal_hrd=none / ip_ratio=1.40 / aq=1:1.00

Language                    : English

Default                     : Yes

Forced                      : No

Color range                 : Limited

Color primaries             : BT.601 PAL

Transfer characteristics    : BT.709

Matrix coefficients         : BT.601



Audio

ID                          : 2

Format                      : AC-3

Format/Info                 : Audio Coding 3

Mode extension              : CM (complete main)

Format settings, Endianness : Big

Codec ID                    : A_AC3

Duration                    : 1h 41mn

Bit rate mode               : Constant

Bit rate                    : 448 Kbps

Channel(s)                  : 6 channels

Channel positions           : Front: L C R, Side: L R, LFE

Sampling rate               : 48.0 KHz

Frame rate                  : 31.250 fps (1536 spf)

Compression mode            : Lossy

Stream size                 : 324 MiB (26%)

Language                    : Greek

Default                     : Yes

Forced                      : No



Text

ID                          : 3

Format                      : VobSub

Codec ID                    : S_VOBSUB

Codec ID/Info               : Picture based subtitle format used on DVDs

Language                    : Greek

Default                     : Yes

Forced                      : No








Επισκόπηση του προφίλ των χρηστών

Επισκόπηση προηγούμενης Θ.Ενότητας Επισκόπηση επόμενης Θ.Ενότητας Επιστροφή στην κορυφή  Μήνυμα [Σελίδα 1 από 1]


Δικαιώματα σας στην κατηγορία αυτή
Δεν μπορείτε να απαντήσετε στα Θέματα αυτής της Δ.Συζήτησης

Τρόποι Κοινοποίησης:
URL:
BBCode:
HTML: