Μη Συνδεδεμενος Παρακαλώ συνδεθείτε ή εγγραφείτε

Επισκόπηση προηγούμενης Θ.Ενότητας Επισκόπηση επόμενης Θ.Ενότητας Πήγαινε κάτω  Μήνυμα [Σελίδα 1 από 1]

#1
 POPIKOSTAS




COPACABANA (2010) DVDRip - ΞΕΧΩΡΙΣΤΟΙ ΥΠΟΤΙΤΛΟΙ

Σκηνοθεσία: Marc Fitoussi
Σενάριο: Marc Fitoussi
Ηθοποιοί: Isabelle Huppert, Aure Atika, Lolita Chammah, Jurgen Delnaet, Chantal Banlier, Magali Woch, Nelly Antignac, Guillaume Gouix, Joachim Lombard, Noémie Lvovsky, Luis Rego, Cyril Couton, François Comar, Léonie Simaga, Veerle Dobbelaere
Είδος ταινίας: Comedy
Χώρα παραγωγής: France , Belgium

Υποτιτλισμός: billbel10

Τολμηρή, αντισυμβατική και χαρούμενη. Έτσι θα μπορούσε κανείς να περιγράψει την Μπάμπου. Ποτέ δεν νοιάστηκε για τις κοινωνικές συμβάσεις και δεν την απασχόλησαν στη ζωή της. Ξαφνικά αντιλαμβάνεται ότι η κόρη της ντρέπεται για αυτήν και ως εκ τούτου αρνείται να την προσκαλέσει στο γάμο της. Με πληγωμένη την υπερηφάνειά της, η Μπάμπου προσπαθεί να ανακτήσει το σεβασμό της κόρης της κάνοντας μια καινούργια αρχή. Δέχεται την πρόκληση να πουλάει χρονομερίδια διαμερισμάτων στη βελγική παραλία εκτός εποχής, σε μια απεγνωσμένη προσπάθεια να αποδείξει την πραγματική της αξία και τη μητρική της αγάπη για την κόρη της. Θα τα καταφέρει;

[video][Πρέπει να είστε εγγεγραμμένοι και συνδεδεμένοι για να δείτε αυτόν το σύνδεσμο.]



Κώδικας:
http://www.imdb.com/title/tt1454910/

ΤΕΧΝΙΚΑ ΧΑΡΑΚΤΗΡΙΣΤΙΚΑ

Σπόιλερ:

General

Complete name : Copacabana.2010.French.DVDRip.AC3.HORiZON-ArtSubs.avi

Format : AVI

Format/Info : Audio Video Interleave

File size : 1.36 GiB

Duration : 1h 41mn

Overall bit rate : 1 923 Kbps

Writing application : FairUse Wizard - [Πρέπει να είστε εγγεγραμμένοι και συνδεδεμένοι για να δείτε αυτόν το σύνδεσμο.]

Writing library : The best and REALLY easy backup tool

Video

ID : 0

Format : MPEG-4 Visual

Format profile : Advanced Simple@L5

Format settings, BVOP : 1

Format settings, QPel : No

Format settings, GMC : No warppoints

Format settings, Matrix : Default (H.263)

Muxing mode : Packed bitstream

Codec ID : XVID

Codec ID/Hint : XviD

Duration : 1h 41mn

Bit rate : 1 465 Kbps

Width : 704 pixels

Height : 368 pixels

Display aspect ratio : 1.913

Frame rate : 25.000 fps

Color space : YUV

Chroma subsampling : 4:2:0

Bit depth : 8 bits

Scan type : Progressive

Compression mode : Lossy

Bits/(Pixel*Frame) : 0.226

Stream size : 1.04 GiB (76%)

Writing library : XviD 1.1.0 (UTC 2005-11-22)

Audio

ID : 1

Format : AC-3

Format/Info : Audio Coding 3

Mode extension : CM (complete main)

Codec ID : 2000

Duration : 1h 41mn

Bit rate mode : Constant

Bit rate : 448 Kbps

Channel(s) : 6 channels

Channel positions : Front: L C R, Side: L R, LFE

Sampling rate : 48.0 KHz

Bit depth : 16 bits

Compression mode : Lossy

Stream size : 326 MiB (23%)

Alignment : Split accross interleaves

Interleave, duration : 40 ms (1.00 video frame)

Interleave, preload duration : 500 ms








Επισκόπηση του προφίλ των χρηστών

Επισκόπηση προηγούμενης Θ.Ενότητας Επισκόπηση επόμενης Θ.Ενότητας Επιστροφή στην κορυφή  Μήνυμα [Σελίδα 1 από 1]


Δικαιώματα σας στην κατηγορία αυτή
Δεν μπορείτε να απαντήσετε στα Θέματα αυτής της Δ.Συζήτησης

Τρόποι Κοινοποίησης:
URL:
BBCode:
HTML: