Μη Συνδεδεμενος Παρακαλώ συνδεθείτε ή εγγραφείτε

Επισκόπηση προηγούμενης Θ.Ενότητας Επισκόπηση επόμενης Θ.Ενότητας Πήγαινε κάτω  Μήνυμα [Σελίδα 1 από 1]

#1
 POPIKOSTAS




TAKE ME OUT TO THE BALL GAME (1949) DVDRip x264 AC3-mafalda - ΞΕΧΩΡΙΣΤΟΙ ΥΠΟΤΙΤΛΟΙ



Σκηνοθεσία: Busby Berkeley
Σενάριο: Harry Tugend , George Wells
Ηθοποιοί: Frank Sinatra, Esther Williams, Gene Kelly, Betty Garrett, Edward Arnold, Jules Munshin, Richard Lane, Tom Dugan
Είδος ταινίας: Comedy, Musical, Romance
Χώρα παραγωγής: USA

Υποτιτλισμός: ΑΛΕΞΑΝΔΡΟΣ ΓΚΟΥΛΕΛΗΣ



Δύο παίκτες του μπέιζμπολ, που εργάζονται στο βαριετέ, μπαίνουν σε μπελάδες με τη νέα ιδιοκτήτρια της ομάδας τους.Πρέπει όμως να αντιμετωπίσουν και μια σειρά από γκάνγκστερ με επικεφαλής τον Joe Lorgan που θέλει να κερδίσει ένα μεγάλο στοίχημα, αλλοιώνοντας το αποτέλεσμα του αγώνα τους.

[video=youtube;GetkT1Jatyg][Πρέπει να είστε εγγεγραμμένοι και συνδεδεμένοι για να δείτε αυτόν το σύνδεσμο.]



Κώδικας:
http://www.imdb.com/title/tt0041944/

ΤΕΧΝΙΚΑ ΧΑΡΑΚΤΗΡΙΣΤΙΚΑ

Σπόιλερ:

General

Complete name : Take Me Out to the Ball Game.1949.DVDRip.x264-mafalda.mkv

Format : Matroska

Format version : Version 4 / Version 2

File size : 1.47 GiB

Duration : 1 h 32 min

Overall bit rate : 2 258 kb/s

Encoded date : UTC 2017-08-28 13:22:23

Writing application : mkvmerge v15.0.0 ('Duel with the Devil') 64-bit

Writing library : libebml v1.3.5 + libmatroska v1.4.5

Video

ID : 1

Format : AVC

Format/Info : Advanced Video Codec

Format profile : High@L4

Format settings, CABAC : Yes

Format settings, ReFrames : 14 frames

Codec ID : V_MPEG4/ISO/AVC

Duration : 1 h 32 min

Bit rate : 2 060 kb/s

Width : 720 pixels

Height : 480 pixels

Display aspect ratio : 4:3

Frame rate mode : Constant

Frame rate : 23.976 (24000/1001) FPS

Color space : YUV

Chroma subsampling : 4:2:0

Bit depth : 8 bits

Scan type : Progressive

Bits/(Pixel*Frame) : 0.249

Stream size : 1.34 GiB (91%)

Writing library : x264 core 148 r2708 86b7198

Encoding settings : cabac=1 / ref=14 / deblock=1:-3:-3 / analyse=0x3:0x133 / me=umh / subme=9 / psy=1 / psy_rd=1.00:0.00 / mixed_ref=1 / me_range=36 / chroma_me=1 / trellis=2 / 8x8dct=1 / cqm=0 / deadzone=21,11 / fast_pskip=0 / chroma_qp_offset=-2 / threads=15 / lookahead_threads=2 / sliced_threads=0 / nr=0 / decimate=1 / interlaced=0 / bluray_compat=0 / constrained_intra=0 / bframes=9 / b_pyramid=2 / b_adapt=2 / b_bias=0 / direct=3 / weightb=1 / open_gop=0 / weightp=2 / keyint=240 / keyint_min=24 / scenecut=40 / intra_refresh=0 / rc_lookahead=60 / rc=2pass / mbtree=1 / bitrate=2060 / ratetol=1.0 / qcomp=0.60 / qpmin=0 / qpmax=69 / qpstep=4 / cplxblur=20.0 / qblur=0.5 / vbv_maxrate=25000 / vbv_bufsize=31250 / nal_hrd=none / filler=0 / ip_ratio=1.40 / aq=1:1.00

Default : Yes

Forced : No

Color range : Limited

Color primaries : BT.601 NTSC

Transfer characteristics : BT.709

Matrix coefficients : BT.601

Audio

ID : 2

Format : AC-3

Format/Info : Audio Coding 3

Mode extension : CM (complete main)

Format settings, Endianness : Big

Codec ID : A_AC3

Duration : 1 h 32 min

Bit rate mode : Constant

Bit rate : 192 kb/s

Channel(s) : 1 channel

Channel positions : Front: C

Sampling rate : 48.0 kHz

Frame rate : 31.250 FPS (1536 spf)

Compression mode : Lossy

Stream size : 128 MiB (9%)

Title : Mono

Language : English

Default : Yes

Forced : No

Text [Πρέπει να είστε εγγεγραμμένοι και συνδεδεμένοι για να δείτε αυτόν το σύνδεσμο.]

ID : 3

Format : VobSub

Muxing mode : zlib

Codec ID : S_VOBSUB

Codec ID/Info : Picture based subtitle format used on DVDs

Duration : 1 h 32 min

Bit rate : 3 876 b/s

Count of elements : 1421

Stream size : 2.56 MiB (0%)

Language : English

Default : No

Forced : No

Text [Πρέπει να είστε εγγεγραμμένοι και συνδεδεμένοι για να δείτε αυτόν το σύνδεσμο.]

ID : 4

Format : VobSub

Muxing mode : zlib

Codec ID : S_VOBSUB

Codec ID/Info : Picture based subtitle format used on DVDs

Duration : 1 h 32 min

Bit rate : 2 127 b/s

Count of elements : 999

Stream size : 1.40 MiB (0%)

Language : French

Default : No

Forced : No








Επισκόπηση προηγούμενης Θ.Ενότητας Επισκόπηση επόμενης Θ.Ενότητας Επιστροφή στην κορυφή  Μήνυμα [Σελίδα 1 από 1]


Δικαιώματα σας στην κατηγορία αυτή
Δεν μπορείτε να απαντήσετε στα Θέματα αυτής της Δ.Συζήτησης

Τρόποι Κοινοποίησης:
URL:
BBCode:
HTML: