Μη Συνδεδεμενος Παρακαλώ συνδεθείτε ή εγγραφείτε

Επισκόπηση προηγούμενης Θ.Ενότητας Επισκόπηση επόμενης Θ.Ενότητας Πήγαινε κάτω  Μήνυμα [Σελίδα 1 από 1]

#1
 POPIKOSTAS




CASH McCALL (1960) DVDRip - HANDJOB - ΞΕΧΩΡΙΣΤΟΙ ΥΠΟΤΙΤΛΟΙ



Σκηνοθεσία: Joseph Pevney
Σενάριο: Lenore J. Coffee , Marion Hargrove
Ηθοποιοί: Otto Kruger, Dean Jagger, Nina Foch, Natalie Wood, Roland Winters, Parley Baer, E.G. Marshall, Edgar Stehli, Edward Platt, Henry Jones, James Garner, Linda Watkins
Είδος ταινίας: Drama, Romance
Χώρα παραγωγής: USA



Ο Κας Μακ Κολ (Τζέιμς Γκάρνερ), μεγάλο οικονομικό στέλεχος και είναι όπως υποστηρίζει και ο ίδιος ένας επιθετικός χαρακτήρας. Η μεγαλύτερη ευχαρίστησή του είναι να βγάζει περισσότερα χρήματα. Και στη συγκεκριμένη φάση της ζωής του τα πράγματα δεν θα μπορούσαν να πάνε καλύτερα καθώς ετοιμάζεται να ολοκληρώσει άλλη μια εξαγορά εταιρίας και να βγάλει ακόμα περισσότερα λεφτά- και όχι μόνο, καθώς επίσης προετοιμάζεται για να πέσει και στα δίχτυα του έρωτα. Και καθώς όλα πηγαίνουν μια χαρά, μπαίνει στη ζωή του η Λόρυ Όστεν (Νάταλι Γουντ) και ανατρέπει όλα τα δεδομένα.

[video][Πρέπει να είστε εγγεγραμμένοι και συνδεδεμένοι για να δείτε αυτόν το σύνδεσμο.]



Κώδικας:
http://www.imdb.com/title/tt0052680/

ΤΕΧΝΙΚΑ ΧΑΡΑΚΤΗΡΙΣΤΙΚΑ

Σπόιλερ:

General

Complete name : Cash.McCall.1960.DVDRip.x264-HANDJOB.mkv

Format : Matroska

Format version : Version 2

File size : 1.37 GiB

Duration : 1 h 37 min

Overall bit rate : 2 011 kb/s

Encoded date : UTC 2014-07-26 01:07:19

Writing application : mkvmerge v5.8.0 ('No Sleep / Pillow') built on Sep 2 2012 15:37:04

Writing library : libebml v1.2.3 + libmatroska v1.3.0

Video

ID : 1

Format : AVC

Format/Info : Advanced Video Codec

Format profile : High@L4

Format settings, CABAC : Yes

Format settings, ReFrames : 16 frames

Codec ID : V_MPEG4/ISO/AVC

Duration : 1 h 37 min

Bit rate : 1 779 kb/s

Width : 716 pixels

Height : 576 pixels

Display aspect ratio : 16:9

Original display aspect ratio : 16:9

Frame rate mode : Constant

Frame rate : 25.000 FPS

Color space : YUV

Chroma subsampling : 4:2:0

Bit depth : 8 bits

Scan type : Progressive

Bits/(Pixel*Frame) : 0.173

Stream size : 1.21 GiB (88%)

Writing library : x264 core 130 r2273 b3065e6

Encoding settings : cabac=1 / ref=16 / deblock=1:-3:-3 / analyse=0x3:0x133 / me=umh / subme=11 / psy=1 / psy_rd=1.00:0.00 / mixed_ref=1 / me_range=24 / chroma_me=1 / trellis=2 / 8x8dct=1 / cqm=0 / deadzone=21,11 / fast_pskip=0 / chroma_qp_offset=-2 / threads=6 / lookahead_threads=1 / sliced_threads=0 / nr=0 / decimate=1 / interlaced=0 / bluray_compat=0 / constrained_intra=0 / bframes=12 / b_pyramid=2 / b_adapt=2 / b_bias=0 / direct=3 / weightb=1 / open_gop=0 / weightp=2 / keyint=250 / keyint_min=25 / scenecut=40 / intra_refresh=0 / rc_lookahead=60 / rc=crf / mbtree=1 / crf=17.5 / qcomp=0.60 / qpmin=0 / qpmax=69 / qpstep=4 / ip_ratio=1.40 / aq=1:1.00

Language : English

Default : Yes

Forced : No

Color range : Limited

Color primaries : BT.601 PAL

Transfer characteristics : BT.709

Matrix coefficients : BT.601

Audio

ID : 2

Format : AC-3

Format/Info : Audio Coding 3

Mode extension : CM (complete main)

Format settings, Endianness : Big

Codec ID : A_AC3

Duration : 1 h 37 min

Bit rate mode : Constant

Bit rate : 192 kb/s

Channel(s) : 1 channel

Channel positions : Front: C

Sampling rate : 48.0 kHz

Frame rate : 31.250 FPS (1536 spf)

Compression mode : Lossy

Stream size : 134 MiB (10%)

Language : English

Default : Yes

Forced : No








Επισκόπηση του προφίλ των χρηστών

Επισκόπηση προηγούμενης Θ.Ενότητας Επισκόπηση επόμενης Θ.Ενότητας Επιστροφή στην κορυφή  Μήνυμα [Σελίδα 1 από 1]


Δικαιώματα σας στην κατηγορία αυτή
Δεν μπορείτε να απαντήσετε στα Θέματα αυτής της Δ.Συζήτησης

Τρόποι Κοινοποίησης:
URL:
BBCode:
HTML: