Μη Συνδεδεμενος Παρακαλώ συνδεθείτε ή εγγραφείτε

Επισκόπηση προηγούμενης Θ.Ενότητας Επισκόπηση επόμενης Θ.Ενότητας Πήγαινε κάτω  Μήνυμα [Σελίδα 1 από 1]

#1
 POPIKOSTAS




THE MOON-SPINNERS - ΤΑ ΙΧΝΗ ΟΔΗΓΟΥΝ ΣΤΗΝ ΚΡΗΤΗ (1964) DVDRip - ΞΕΧΩΡΙΣΤΟΙ ΥΠΟΤΙΤΛΟΙ



Σκηνοθεσία: James Neilson
Σενάριο: Michael Dyne , Mary Stewart
Ηθοποιοί: Eli Wallach, André Morell, John Le Mesurier, Irene Papas, Hayley Mills, Joan Greenwood, Sheila Hancock, Pola Negri, Paul Stassino, Peter McEnery
Είδος ταινίας: Family, Mystery, Romance
Χώρα παραγωγής: USA

Υποτιτλισμός: Anavisos

Η νεαρή βρετανίδα Νίκι και η θεία της φτάνουν στο ξενοδοχείο Moon-Spinners της Κρήτης, για να μη συναντήσουν το πιο ζεστό καλωσόρισμα. Η ψυχρότητα της ιδιοκτήτρια ανταγωνίζεται την απειλητική εμφάνιση του Στράτου, του αδελφού της που μόλις ήρθε από το Λονδίνο. Τουλάχιστον, γνωρίζει τον νεαρό Εγγλέζο Μαρκ και γίνονται φίλοι, μέχρι που απειλείται η ζωή του από τον Στράτο. Καθώς η Νίκι βοηθάει τον Μαρκ να κρυφτεί, βρίσκεται κι αυτή στο στόχαστρο των Ελλήνων.

[video][Πρέπει να είστε εγγεγραμμένοι και συνδεδεμένοι για να δείτε αυτόν το σύνδεσμο.]



Κώδικας:
http://www.imdb.com/title/tt0058371/

ΤΕΧΝΙΚΑ ΧΑΡΑΚΤΗΡΙΣΤΙΚΑ

Σπόιλερ:

General

Complete name :The Moon-Spinners 1964 DVDRip XViD.mkv

Format : Matroska

Format version : Version 4 / Version 2

File size : 1.38 GiB

Duration : 1 h 53 min

Overall bit rate : 1 737 kb/s

Movie name : The Moon-Spinners (1964)

Encoded date : UTC 2014-12-23 08:38:26

Writing application : mkvmerge v6.7.0 ('Back to the Ground') 32bit built on Jan 8 2014 15:03:17

Writing library : libebml v1.3.0 + libmatroska v1.4.1

Video

ID : 1

Format : MPEG-4 Visual

Format profile : Simple@L3

Format settings, BVOP : No

Format settings, QPel : No

Format settings, GMC : No warppoints

Format settings, Matrix : Default (H.263)

Codec ID : V_MS/VFW/FOURCC / XVID

Codec ID/Hint : XviD

Duration : 1 h 53 min

Bit rate : 1 478 kb/s

Width : 640 pixels

Height : 344 pixels

Display aspect ratio : 1.85:1

Frame rate mode : Constant

Frame rate : 25.000 FPS

Color space : YUV

Chroma subsampling : 4:2:0

Bit depth : 8 bits

Scan type : Progressive

Compression mode : Lossy

Bits/(Pixel*Frame) : 0.269

Stream size : 1.18 GiB (85%)

Writing library : XviD 64

Language : English

Default : Yes

Forced : No

Audio

ID : 2

Format : MPEG Audio

Format version : Version 1

Format profile : Layer 3

Codec ID : A_MPEG/L3

Codec ID/Hint : MP3

Duration : 1 h 53 min

Bit rate mode : Constant

Bit rate : 224 kb/s

Channel(s) : 2 channels

Sampling rate : 48.0 kHz

Compression mode : Lossy

Stream size : 183 MiB (13%)

Writing library : LAME3.98

Encoding settings : -m s -V 4 -q 3 -lowpass 19.4 -b 224

Language : English

Default : Yes

Forced : No








Επισκόπηση προηγούμενης Θ.Ενότητας Επισκόπηση επόμενης Θ.Ενότητας Επιστροφή στην κορυφή  Μήνυμα [Σελίδα 1 από 1]


Δικαιώματα σας στην κατηγορία αυτή
Δεν μπορείτε να απαντήσετε στα Θέματα αυτής της Δ.Συζήτησης

Τρόποι Κοινοποίησης:
URL:
BBCode:
HTML: