Μη Συνδεδεμενος Παρακαλώ συνδεθείτε ή εγγραφείτε

Επισκόπηση προηγούμενης Θ.Ενότητας Επισκόπηση επόμενης Θ.Ενότητας Πήγαινε κάτω  Μήνυμα [Σελίδα 1 από 1]

#1
 POPIKOSTAS




TURKS FRUIT - ΛΟΥΛΟΥΔΙ ΤΗΣ ΣΑΡΚΑΣ (1973) DVDRip - ΞΕΧΩΡΙΣΤΟΙ ΥΠΟΤΙΤΛΟΙ



 Director: Paul Verhoeven
Writers: Gerard Soeteman, Jan Wolkers (novel)
Stars: Monique van de Ven, Rutger Hauer, Tonny Huurdeman
ΥΠΟΤΙΤΛΟΙ:   bar81, panoulis13

Ο Έρικ Βονκ είναι ένας Ολλανδός γλύπτης που έχει μια θυελλώδη ερωτική σχέση με μια νεαρή κοπέλα. Με αφορμή την επαφή του με την οικογένεια της, η ιστορία πηγαίνει μπρος και πίσω, όταν αυτός είχε ακόμα τη σύζυγο του ή έβλεπε τις γυναίκες ως τρόπαια.

[video][Πρέπει να είστε εγγεγραμμένοι και συνδεδεμένοι για να δείτε αυτόν το σύνδεσμο.]



Κώδικας:
http://www.imdb.com/title/tt0070842/

ΤΕΧΝΙΚΑ ΧΑΡΑΚΤΗΡΙΣΤΙΚΑ

Σπόιλερ:

General
Complete name                  : Turks Fruit 1973 DVDRip x264 AC3.mkv
Format                         : Matroska
Format version                 : Version 2
File size                      : 1.44 GiB
Duration                       : 1 h 48 min
Overall bit rate               : 1 913 kb/s
Encoded date                   : UTC 2015-06-17 20:13:51
Writing application            : mkvmerge v7.7.0 ('Six Voices') 32bit built on Feb 28 2015 23:23:00
Writing library                : libebml v1.3.1 + libmatroska v1.4.2

Video
ID                             : 1
Format                         : AVC
Format/Info                    : Advanced Video Codec
Format profile                 : Main@L3
Format settings                : CABAC / 4 Ref Frames
Format settings, CABAC         : Yes
Format settings, RefFrames     : 4 frames
Codec ID                       : V_MPEG4/ISO/AVC
Duration                       : 1 h 48 min
Bit rate                       : 1 720 kb/s
Width                          : 720 pixels
Height                         : 432 pixels
Display aspect ratio           : 5:3
Frame rate mode                : Constant
Frame rate                     : 23.976 (24000/1001) FPS
Color space                    : YUV
Chroma subsampling             : 4:2:0
Bit depth                      : 8 bits
Scan type                      : Progressive
Bits/(Pixel*Frame)             : 0.231
Stream size                    : 1.30 GiB (90%)
Writing library                : x264 core 146 r2538 121396c
Encoding settings              : cabac=1 / ref=3 / deblock=1:0:0 / analyse=0x1:0x111 / me=hex / subme=6 / psy=1 / psy_rd=1.00:0.00 / mixed_ref=1 / me_range=16 / chroma_me=1 / trellis=1 / 8x8dct=0 / cqm=0 / deadzone=21,11 / fast_pskip=1 / chroma_qp_offset=-2 / threads=3 / lookahead_threads=1 / sliced_threads=0 / nr=0 / decimate=1 / interlaced=0 / bluray_compat=0 / constrained_intra=0 / bframes=3 / b_pyramid=2 / b_adapt=1 / b_bias=0 / direct=1 / weightb=1 / open_gop=0 / weightp=2 / keyint=240 / keyint_min=23 / scenecut=40 / intra_refresh=0 / rc=2pass / mbtree=0 / bitrate=1720 / ratetol=1.0 / qcomp=0.60 / qpmin=10 / qpmax=51 / qpstep=4 / cplxblur=20.0 / qblur=0.5 / ip_ratio=1.40 / pb_ratio=1.30 / aq=1:1.00
Default                        : Yes
Forced                         : No

Audio
ID                             : 2
Format                         : AC-3
Format/Info                    : Audio Coding 3
Format settings, Endianness    : Big
Codec ID                       : A_AC3
Duration                       : 1 h 48 min
Bit rate mode                  : Constant
Bit rate                       : 192 kb/s
Channel(s)                     : 2 channels
Channel positions              : Front: L R
Sampling rate                  : 48.0 kHz
Frame rate                     : 31.250 FPS (1536 SPF)
Bit depth                      : 16 bits
Compression mode               : Lossy
Stream size                    : 148 MiB (10%)
Service kind                   : Complete Main
Default                        : Yes
Forced                         : No








Επισκόπηση του προφίλ των χρηστών

Επισκόπηση προηγούμενης Θ.Ενότητας Επισκόπηση επόμενης Θ.Ενότητας Επιστροφή στην κορυφή  Μήνυμα [Σελίδα 1 από 1]


Δικαιώματα σας στην κατηγορία αυτή
Δεν μπορείτε να απαντήσετε στα Θέματα αυτής της Δ.Συζήτησης

Τρόποι Κοινοποίησης:
URL:
BBCode:
HTML: