Μη Συνδεδεμενος Παρακαλώ συνδεθείτε ή εγγραφείτε

Επισκόπηση προηγούμενης Θ.Ενότητας Επισκόπηση επόμενης Θ.Ενότητας Πήγαινε κάτω  Μήνυμα [Σελίδα 1 από 1]

#1
 POPIKOSTAS




THE PAJAMA GAME (1957) DVDRip x264 AAC - JYK - ΞΕΧΩΡΙΣΤΟΙ ΥΠΟΤΙΤΛΟΙ

Σκηνοθεσία: George Abbott, Stanley Donen
Σενάριο: George Abbott , Richard Bissell
Ηθοποιοί: Eddie Foy Jr., Ralph Dunn, Doris Day, Carol Haney, Reta Shaw, Barbara Nichols, Buzz Miller, Jack Straw, Jackie Kelk, John Raitt, Kenneth LeRoy, Mary Stanton, Owen Martin, Ralph W. Chambers, Thelma Pelish
Είδος ταινίας: Comedy, Drama, Musical
Χώρα παραγωγής: USA

Υποτιτλισμός: Anavisos

Οι υπάλληλοι της βιομηχανίας κατασκευής πιτζαμών Sleeptite έχουν κατέβει σε απεργία και θέλουν 7μιση σεντ αύξηση την ώρα. Οργανωτής της ανταρσίας είναι η δυναμική Μπέιμπ Γουίλιαμς, αλλά στο πρόσωπο του προϊστάμενου Σιντ Σορόκιν έχει βρει το αντίπαλο δέος. Όταν, όμως, τα βρίσκουν, έχουν να συζητήσουν πολλά περισσότερα από τη δουλειά.

[video][Πρέπει να είστε εγγεγραμμένοι και συνδεδεμένοι για να δείτε αυτόν το σύνδεσμο.]



Κώδικας:
http://www.imdb.com/title/tt0050814/

ΤΕΧΝΙΚΑ ΧΑΡΑΚΤΗΡΙΣΤΙΚΑ

Σπόιλερ:

General

Complete name : The Pajama Game 1957 DVDRip x264 AAC-JYK.avi

Format : AVI

Format/Info : Audio Video Interleave

Format profile : OpenDML

File size : 1.36 GiB

Duration : 1 h 41 min

Overall bit rate : 1 925 kb/s

Writing application : Lavf52.94.0

Video

ID : 0

Format : AVC

Format/Info : Advanced Video Codec

Format profile : Main@L3

Format settings, CABAC : Yes

Format settings, ReFrames : 2 frames

Codec ID : H264

Duration : 1 h 41 min

Bit rate : 1 646 kb/s

Width : 720 pixels

Height : 400 pixels

Display aspect ratio : 16:9

Frame rate mode : Variable

Frame rate : 23.976 FPS

Color space : YUV

Chroma subsampling : 4:2:0

Bit depth : 8 bits

Scan type : Progressive

Bits/(Pixel*Frame) : 0.238

Stream size : 1.17 GiB (86%)

Writing library : x264 core 112 r1834 a51816a

Encoding settings : cabac=1 / ref=1 / deblock=1:0:0 / analyse=0x1:0 / me=dia / subme=2 / psy=1 / psy_rd=0.00:0.00 / mixed_ref=0 / me_range=16 / chroma_me=1 / trellis=0 / 8x8dct=0 / cqm=0 / deadzone=21,11 / fast_pskip=1 / chroma_qp_offset=0 / threads=4 / sliced_threads=0 / nr=0 / decimate=1 / interlaced=0 / constrained_intra=0 / bframes=3 / b_pyramid=0 / b_adapt=1 / b_bias=0 / direct=3 / weightb=0 / open_gop=0 / weightp=2 / keyint=250 / keyint_min=25 / scenecut=40 / intra_refresh=0 / rc_lookahead=40 / rc=abr / mbtree=1 / bitrate=1646 / ratetol=1.0 / qcomp=0.60 / qpmin=10 / qpmax=51 / qpstep=4 / ip_ratio=1.41 / aq=1:1.00

Audio

ID : 1

Format : MPEG Audio

Format version : Version 1

Format profile : Layer 3

Mode : Joint stereo

Mode extension : MS Stereo

Codec ID : 55

Codec ID/Hint : MP3

Duration : 1 h 41 min

Bit rate mode : Constant

Bit rate : 256 kb/s

Channel(s) : 2 channels

Sampling rate : 48.0 kHz

Compression mode : Lossy

Stream size : 185 MiB (13%)

Alignment : Aligned on interleaves

Interleave, duration : 24 ms (0.58 video frame)








Επισκόπηση του προφίλ των χρηστών

Επισκόπηση προηγούμενης Θ.Ενότητας Επισκόπηση επόμενης Θ.Ενότητας Επιστροφή στην κορυφή  Μήνυμα [Σελίδα 1 από 1]


Δικαιώματα σας στην κατηγορία αυτή
Δεν μπορείτε να απαντήσετε στα Θέματα αυτής της Δ.Συζήτησης

Τρόποι Κοινοποίησης:
URL:
BBCode:
HTML: