Μη Συνδεδεμενος Παρακαλώ συνδεθείτε ή εγγραφείτε

Επισκόπηση προηγούμενης Θ.Ενότητας Επισκόπηση επόμενης Θ.Ενότητας Πήγαινε κάτω  Μήνυμα [Σελίδα 1 από 1]

#1
 POPIKOSTAS




ROSE MARIE (1954) DVDRip - ΞΕΧΩΡΙΣΤΟΙ ΥΠΟΤΙΤΛΟΙ

Σκηνοθεσία: Mervyn LeRoy
Σενάριο: Ronald Millar , George Froeschel
Ηθοποιοί: Ann Blyth, Howard Keel, Fernando Lamas, Bert Lahr, Marjorie Main, Joan Taylor, Ray Collins
Είδος ταινίας: Musical, Adventure, Comedy
Χώρα παραγωγής: USA

Υποτιτλισμός: ΧΑΡΗΣ Ι

H Rose Marie Lemaitre, είναι ορφανή απο μικρή, η ίδια θα έλεγε τον εαυτό της αγοροκόριτσο. Μοιραία ερωτέυεται τον του Καναδό έφιππο αστυνομικό Mike Malone, πού την έχει υπο την προστασία του και αυτός ανταποδίδει τον έρωτα της .

Αυτός είναι αρκετός λόγος για να αρχίσει να μαθαίνει να συμπεριφέρεται σαν μια αληθινή κυρία. Τότε γνωρίζει και τον παράνομο κυνηγό James Duval, ο οποίος την ερωτεύεται αμέσως και αυτός . Η κατάσταση θα έχει άσχημη τροπή, όταν ο τοπικός Ινδιάνος αρχηγός Black Eagle, δολοφονείται, επειδή η διαμάχη του με τον Duval, καθιστά τον δεύτερο βασικό ύποπτο για αυτόν τον φόνο....

[video][Πρέπει να είστε εγγεγραμμένοι και συνδεδεμένοι για να δείτε αυτόν το σύνδεσμο.]



Κώδικας:
http://www.imdb.com/title/tt0047429/

ΤΕΧΝΙΚΑ ΧΑΡΑΚΤΗΡΙΣΤΙΚΑ

Σπόιλερ:

General

Complete name : Rose Marie (1954) DVDRip x264 AC3.mkv

Format : Matroska

Format version : Version 2

File size : 1.09 GiB

Duration : 1 h 44 min

Overall bit rate : 1 497 kb/s

Writing application : HandBrake 0.9.9

Writing library : libmkv 0.6.5

Video

ID : 1

Format : AVC

Format/Info : Advanced Video Codec

Format profile : High@L4.1

Format settings, CABAC : Yes

Format settings, ReFrames : 4 frames

Codec ID : V_MPEG4/ISO/AVC

Duration : 1 h 44 min

Bit rate : 1 300 kb/s

Width : 720 pixels

Height : 338 pixels

Display aspect ratio : 2.524

Original display aspect ratio : 2.525

Frame rate mode : Constant

Frame rate : 23.976 (24000/1001) FPS

Color space : YUV

Chroma subsampling : 4:2:0

Bit depth : 8 bits

Scan type : Progressive

Bits/(Pixel*Frame) : 0.223

Stream size : 949 MiB (85%)

Writing library : x264 core 130 r2273 b3065e6

Encoding settings : cabac=1 / ref=3 / deblock=1:0:0 / analyse=0x3:0x113 / me=hex / subme=7 / psy=1 / psy_rd=1.00:0.00 / mixed_ref=1 / me_range=16 / chroma_me=1 / trellis=1 / 8x8dct=1 / cqm=0 / deadzone=21,11 / fast_pskip=1 / chroma_qp_offset=-2 / threads=3 / lookahead_threads=1 / sliced_threads=0 / nr=0 / decimate=1 / interlaced=0 / bluray_compat=0 / constrained_intra=0 / bframes=3 / b_pyramid=2 / b_adapt=1 / b_bias=0 / direct=1 / weightb=1 / open_gop=0 / weightp=2 / keyint=240 / keyint_min=24 / scenecut=40 / intra_refresh=0 / rc_lookahead=40 / rc=2pass / mbtree=1 / bitrate=1300 / ratetol=1.0 / qcomp=0.60 / qpmin=0 / qpmax=69 / qpstep=4 / cplxblur=20.0 / qblur=0.5 / vbv_maxrate=62500 / vbv_bufsize=78125 / nal_hrd=none / ip_ratio=1.40 / aq=1:1.00

Language : English

Default : Yes

Forced : No

Color range : Limited

Color primaries : BT.601 NTSC

Transfer characteristics : BT.709

Matrix coefficients : BT.601

Audio

ID : 2

Format : AC-3

Format/Info : Audio Coding 3

Mode extension : CM (complete main)

Format settings, Endianness : Big

Codec ID : A_AC3

Duration : 1 h 44 min

Bit rate mode : Constant

Bit rate : 192 kb/s

Channel(s) : 2 channels

Channel positions : Front: L R

Sampling rate : 48.0 kHz

Frame rate : 31.250 FPS (1536 spf)

Compression mode : Lossy

Stream size : 143 MiB (13%)

Language : English

Default : Yes

Forced : No








Επισκόπηση του προφίλ των χρηστών

Επισκόπηση προηγούμενης Θ.Ενότητας Επισκόπηση επόμενης Θ.Ενότητας Επιστροφή στην κορυφή  Μήνυμα [Σελίδα 1 από 1]


Δικαιώματα σας στην κατηγορία αυτή
Δεν μπορείτε να απαντήσετε στα Θέματα αυτής της Δ.Συζήτησης

Τρόποι Κοινοποίησης:
URL:
BBCode:
HTML: