Μη Συνδεδεμενος Παρακαλώ συνδεθείτε ή εγγραφείτε

Επισκόπηση προηγούμενης Θ.Ενότητας Επισκόπηση επόμενης Θ.Ενότητας Πήγαινε κάτω  Μήνυμα [Σελίδα 1 από 1]

#1
 POPIKOSTAS




SOMETHING OF VALUE (1957) DVDRip - ΞΕΧΩΡΙΣΤΟΙ ΥΠΟΤΙΤΛΟΙ

Σκηνοθεσία: Richard Brooks
Σενάριο: Richard Brooks , Robert C. Ruark
Ηθοποιοί: Rock Hudson, Dana Wynter, Wendy Hiller, Juano Hernandez, William Marshall, Robert Beatty, Walter Fitzgerald, Michael Pate, Ivan Dixon, Ken Renard, Samadu Jackson, Frederick O'Neal, Sidney Poitier
Είδος ταινίας: Drama, War
Χώρα παραγωγής: USA

Υποτιτλισμός: ΧΑΡΗΣ Ι

Στην Αγγλική αποικία της Κένυα, ο λευκός Πίτερ και ο μαύρος Κιμάνι μεγαλώνουν μαζί σαν αδέλφια. Όταν όμως ο Τζεφ, σύζυγος της αδελφής του Πίτερ, χαστουκίζει για ασήμαντη αφορμή τον Κιμάνι, τον ωθεί με αυτή την πράξη να προσχωρήσει στην τρομοκρατική οργάνωση των Μάου Μάου. Η οργάνωση αυτή είχε σκοπό να διώξει τους Άγγλους από την Κένυα, αλλά χρησιμοποιούσε δολοφονίες, εμπρησμούς και άλλα τρομοκρατικά και βάρβαρα μέσα. Όταν οι Μάου Μάου επιτίθενται στην φάρμα του Πίτερ και σκοτώνουν τον Τζεφ και δυο από τα παιδιά του, ο Πίτερ μαζί με άλλους αποίκους βγαίνει στα βουνά για να τους καταδιώξει…

[video][Πρέπει να είστε εγγεγραμμένοι και συνδεδεμένοι για να δείτε αυτόν το σύνδεσμο.]



Κώδικας:
http://www.imdb.com/title/tt0050993/

ΤΕΧΝΙΚΑ ΧΑΡΑΚΤΗΡΙΣΤΙΚΑ

Σπόιλερ:

General

Complete name : Something.Of.Value.1957.DVDRip.XviD.SN.avi

Format : AVI

Format/Info : Audio Video Interleave

File size : 1.52 GiB

Duration : 1 h 48 min

Overall bit rate : 1 993 kb/s

Video

ID : 0

Format : MPEG-4 Visual

Format profile : Advanced Simple@L5

Format settings, BVOP : 2

Format settings, QPel : No

Format settings, GMC : No warppoints

Format settings, Matrix : Default (H.263)

Codec ID : XVID

Codec ID/Hint : XviD

Duration : 1 h 48 min

Bit rate : 1 592 kb/s

Width : 672 pixels

Height : 368 pixels

Display aspect ratio : 1.85:1

Frame rate : 25.000 FPS

Color space : YUV

Chroma subsampling : 4:2:0

Bit depth : 8 bits

Scan type : Progressive

Compression mode : Lossy

Bits/(Pixel*Frame) : 0.257

Stream size : 1.21 GiB (80%)

Writing library : XviD 1.1.2 (UTC 2006-11-01)

Audio [Πρέπει να είστε εγγεγραμμένοι και συνδεδεμένοι για να δείτε αυτόν το σύνδεσμο.]

ID : 1

Format : AC-3

Format/Info : Audio Coding 3

Mode extension : CM (complete main)

Format settings, Endianness : Big

Codec ID : 2000

Duration : 1 h 48 min

Bit rate mode : Constant

Bit rate : 192 kb/s

Channel(s) : 1 channel

Channel positions : Front: C

Sampling rate : 48.0 kHz

Frame rate : 31.250 FPS (1536 spf)

Compression mode : Lossy

Stream size : 150 MiB (10%)

Alignment : Aligned on interleaves

Interleave, duration : 32 ms (0.80 video frame)

Audio [Πρέπει να είστε εγγεγραμμένοι και συνδεδεμένοι για να δείτε αυτόν το σύνδεσμο.]

ID : 2

Format : AC-3

Format/Info : Audio Coding 3

Mode extension : CM (complete main)

Format settings, Endianness : Big

Codec ID : 2000

Duration : 1 h 48 min

Bit rate mode : Constant

Bit rate : 192 kb/s

Channel(s) : 1 channel

Channel positions : Front: C

Sampling rate : 48.0 kHz

Frame rate : 31.250 FPS (1536 spf)

Compression mode : Lossy

Stream size : 150 MiB (10%)

Alignment : Aligned on interleaves

Interleave, duration : 32 ms (0.80 video frame)








Επισκόπηση προηγούμενης Θ.Ενότητας Επισκόπηση επόμενης Θ.Ενότητας Επιστροφή στην κορυφή  Μήνυμα [Σελίδα 1 από 1]


Δικαιώματα σας στην κατηγορία αυτή
Δεν μπορείτε να απαντήσετε στα Θέματα αυτής της Δ.Συζήτησης

Τρόποι Κοινοποίησης:
URL:
BBCode:
HTML: