Μη Συνδεδεμενος Παρακαλώ συνδεθείτε ή εγγραφείτε

Επισκόπηση προηγούμενης Θ.Ενότητας Επισκόπηση επόμενης Θ.Ενότητας Πήγαινε κάτω  Μήνυμα [Σελίδα 1 από 1]

#1
 POPIKOSTAS




LA VIE ET RIEN D'AUTRE- LIFE AND NOTHING BUT (1989) DVDRip - les-stefs79 - ΞΕΧΩΡΙΣΤΟΙ ΥΠΟΤΙΤΛΟΙ

Σκηνοθεσία: Bertrand Tavernier
Σενάριο: Jean Cosmos, Bertrand Tavernier
Ηθοποιοί: Pierre Trabaud, Philippe Noiret, Maurice Barrier, Louis Lyonnet, Michel Duchaussoy, Francois Perrot, Sabine Azema, Frederique Meininger, Daniel Russo, Charlotte Maury-Sentier, Jean-Pol Dubois, Arlette Gilbert, Francois Caron, Pascale Vignal, Thierry Gimenez
Είδος ταινίας: Drama, War
Χώρα παραγωγής: France

Υποτιτλισμός: Zamandy-P.Faliro-Athens

Ιανουάριος του 1920. 350 χιλιάδες Γάλλοι φαντάροι συνεχίζουν να αγνοούνται από τον πόλεμο. Ο ταγματάρχης Ντελαπλάν ακούραστα ψάχνει στους νεκρούς και τους τραυματίες, έχοντας τις περιγραφές των συγγενών. Η ηθική του δεν αντέχει στην ιδέα του αγνοούμενου στρατιώτη. Στον τομέα του καταφτάνει μια πολιτικοποιημένη Παριζιάνα, η Ιρέν, αναζητώντας τον σύζυγο της. Αρχικά δείχνει να προσβάλλετε από τις λίγες πιθανότητες που της δίνει ο ταγματάρχης, αλλά καθώς βλέπει την προσπάθεια του, τα αισθήματα της αλλάζουν. Όταν αυτός ανακαλύπτει έναν απρόσμενο σύνδεσμο ανάμεσα στον χαμένο σύζυγο και τον δάσκαλο της περιοχής, η Ιρέν του κάνει μια απρόσμενη προσφορά.

[video][Πρέπει να είστε εγγεγραμμένοι και συνδεδεμένοι για να δείτε αυτόν το σύνδεσμο.]



Κώδικας:
http://www.imdb.com/title/tt0098596/

ΤΕΧΝΙΚΑ ΧΑΡΑΚΤΗΡΙΣΤΙΚΑ

Σπόιλερ:

General

Complete name : La Vie et Rien d'Autre.(1989).DVDRip.XVid[les-stefs79].avi

Format : AVI

Format/Info : Audio Video Interleave

File size : 1.37 GiB

Duration : 2h 11mn

Overall bit rate : 1 493 Kbps

Writing application : FairUse Wizard - [Πρέπει να είστε εγγεγραμμένοι και συνδεδεμένοι για να δείτε αυτόν το σύνδεσμο.]

Writing library : VirtualDub Fr build 32618/release

Video

ID : 0

Format : MPEG-4 Visual

Format profile : Advanced Simple@L5

Format settings, BVOP : 1

Format settings, QPel : No

Format settings, GMC : No warppoints

Format settings, Matrix : Default (H.263)

Muxing mode : Packed bitstream

Codec ID : XVID

Codec ID/Hint : XviD

Duration : 2h 11mn

Bit rate : 1 387 Kbps

Width : 640 pixels

Height : 296 pixels

Display aspect ratio : 2.2:1

Frame rate : 25.000 fps

Color space : YUV

Chroma subsampling : 4:2:0

Bit depth : 8 bits

Scan type : Progressive

Compression mode : Lossy

Bits/(Pixel*Frame) : 0.293

Stream size : 1.27 GiB (93%)

Writing library : XviD 1.2.1 (UTC 2008-12-04)

Audio

ID : 1

Format : MPEG Audio

Format version : Version 1

Format profile : Layer 3

Mode : Joint stereo

Mode extension : MS Stereo

Codec ID : 55

Codec ID/Hint : MP3

Duration : 2h 11mn

Bit rate mode : Constant

Bit rate : 96.0 Kbps

Channel(s) : 2 channels

Sampling rate : 48.0 KHz

Compression mode : Lossy

Stream size : 90.0 MiB (6%)

Alignment : Aligned on interleaves

Interleave, duration : 40 ms (1.00 video frame)

Interleave, preload duration : 504 ms

Writing library : LAME3.97

Encoding settings : -m j -V 4 -q 2 -lowpass 16 -b 96








Επισκόπηση προηγούμενης Θ.Ενότητας Επισκόπηση επόμενης Θ.Ενότητας Επιστροφή στην κορυφή  Μήνυμα [Σελίδα 1 από 1]


Δικαιώματα σας στην κατηγορία αυτή
Δεν μπορείτε να απαντήσετε στα Θέματα αυτής της Δ.Συζήτησης

Τρόποι Κοινοποίησης:
URL:
BBCode:
HTML: