Μη Συνδεδεμενος Παρακαλώ συνδεθείτε ή εγγραφείτε

Επισκόπηση προηγούμενης Θ.Ενότητας Επισκόπηση επόμενης Θ.Ενότητας Πήγαινε κάτω  Μήνυμα [Σελίδα 1 από 1]

#1
 POPIKOSTAS




ΤΡΕΙΣ ΚΑΡΔΙΕΣ ΕΝΑΣ ΧΤΥΠΟΣ (1965) TVRip

Είδος Ταινίας : .Δραματική
Διάρκεια : .74 λεπτά
Σκηνοθεσία : .Ηλίας Παρασκευάς
Σενάριο : .Ηλίας Παρασκευάς
Ηθοποιοί : .
Σάσα Σοφού
Σούλα Γαλάτη
Περικλής Χριστοφορίδης
Γιάννης Μαλούχος

Η Φούλα προσπαθεί να βοηθήσει όσο μπορεί την τυφλή και ανάπηρη αδελφή της, Ζωίτσα, η οποία λόγω της κατάστασής της είναι αρκετά δύστροπη. Μόνη της διέξοδος, οι επισκέψεις του Κώστας, του γιατρού της, με τον οποίο είναι ερωτευμένη. Εκείνος όμως αγαπάει την αδελφή της. Προσπαθώντας να βγει από το αδιέξοδο δέχεται να αρραβωνιαστεί τον Ανδρέα, αδελφό της φίλης της, Πόπης...



Κώδικας:
http://cine.gr/film.asp?id=701522&page=1

ΤΕΧΝΙΚΑ ΧΑΡΑΚΤΗΡΙΣΤΙΚΑ

Σπόιλερ:

General
Complete name                  : ΤΡΕΙΣ ΚΑΡΔΙΕΣ ΕΝΑΣ ΧΤΥΠΟΣ TVRIP(1965).mp4
Format                         : MPEG-4
Format profile                 : Base Media / Version 2
Codec ID                       : mp42 (mp42/isom/avc1)
File size                      : 1.04 GiB
Duration                       : 1 h 14 min
Overall bit rate mode          : Variable
Overall bit rate               : 1 999 kb/s
Movie name                     : DVD_VR.Title1
Album                          : DVD_VR
Encoded date                   : UTC 2017-06-09 13:50:22
Tagged date                    : UTC 2017-06-09 14:27:09
Writing application            : DVDFab 9.2.1.9
covr                           : Unknown kind of value!

Video
ID                             : 1
Format                         : AVC
Format/Info                    : Advanced Video Codec
Format profile                 : Main@L3
Format settings                : CABAC / 1 Ref Frames
Format settings, CABAC         : Yes
Format settings, RefFrames     : 1 frame
Format settings, GOP           : M=1, N=24
Codec ID                       : avc1
Codec ID/Info                  : Advanced Video Coding
Duration                       : 1 h 14 min
Bit rate                       : 1 780 kb/s
Width                          : 720 pixels
Height                         : 536 pixels
Display aspect ratio           : 4:3
Frame rate mode                : Constant
Frame rate                     : 25.000 FPS
Color space                    : YUV
Chroma subsampling             : 4:2:0
Bit depth                      : 8 bits
Scan type                      : Progressive
Bits/(Pixel*Frame)             : 0.184
Stream size                    : 991 MiB (93%)
Writing library                : x264 core 142
Encoding settings              : cabac=1 / ref=1 / deblock=1:0:0 / analyse=0x1:0x111 / me=umh / subme=6 / psy=0 / mixed_ref=0 / me_range=12 / chroma_me=1 / trellis=0 / 8x8dct=0 / cqm=0 / deadzone=21,11 / fast_pskip=1 / chroma_qp_offset=0 / threads=4 / lookahead_threads=1 / sliced_threads=0 / nr=0 / decimate=1 / interlaced=0 / bluray_compat=0 / constrained_intra=0 / bframes=0 / weightp=0 / keyint=24 / keyint_min=13 / scenecut=40 / intra_refresh=0 / rc=abr / mbtree=0 / bitrate=1780 / ratetol=1.0 / qcomp=0.60 / qpmin=0 / qpmax=69 / qpstep=4 / ip_ratio=1.40 / aq=1:1.00
Encoded date                   : UTC 2017-06-09 13:50:22
Tagged date                    : UTC 2017-06-09 14:27:09
Color range                    : Limited
Color primaries                : BT.601 NTSC
Transfer characteristics       : BT.709
Matrix coefficients            : BT.601
Menus                          : 4

Audio
ID                             : 2
Format                         : AAC
Format/Info                    : Advanced Audio Codec
Format profile                 : LC
Codec ID                       : mp4a-40-2
Duration                       : 1 h 14 min
Bit rate mode                  : Variable
Bit rate                       : 128 kb/s
Maximum bit rate               : 129 kb/s
Channel(s)                     : 2 channels
Channel positions              : Front: L R
Sampling rate                  : 48.0 kHz
Frame rate                     : 46.875 FPS (1024 SPF)
Compression mode               : Lossy
Stream size                    : 68.0 MiB (6%)
Title                          : aac 2.0
Default                        : Yes
Alternate group                : 1
Encoded date                   : UTC 2017-06-09 13:50:22
Tagged date                    : UTC 2017-06-09 14:27:08

Text
ID                             : 3
Format                         : VobSub
Codec ID                       : mp4s-E0
Codec ID/Info                  : The same subtitle format used on DVDs
Default                        : Yes
Forced                         : No
Alternate group                : 2
Encoded date                   : UTC 2017-06-09 13:50:22
Tagged date                    : UTC 2017-06-09 13:50:22








Επισκόπηση προηγούμενης Θ.Ενότητας Επισκόπηση επόμενης Θ.Ενότητας Επιστροφή στην κορυφή  Μήνυμα [Σελίδα 1 από 1]


Δικαιώματα σας στην κατηγορία αυτή
Δεν μπορείτε να απαντήσετε στα Θέματα αυτής της Δ.Συζήτησης

Τρόποι Κοινοποίησης:
URL:
BBCode:
HTML: