Μη Συνδεδεμενος Παρακαλώ συνδεθείτε ή εγγραφείτε

Επισκόπηση προηγούμενης Θ.Ενότητας Επισκόπηση επόμενης Θ.Ενότητας Πήγαινε κάτω  Μήνυμα [Σελίδα 1 από 1]

#1
 POPIKOSTAS




TWO OF A KIND (1951) DVDRip - ΞΕΧΩΡΙΣΤΟΙ ΥΠΟΤΙΤΛΟΙ

Σκηνοθεσία: Henry Levin
Σενάριο: Lawrence Kimble , James Gunn
Ηθοποιοί: Edmond O'Brien, Lizabeth Scott, Terry Moore, Alexander Knox, Griff Barnett, Robert Anderson, Virginia Brissac
Είδος ταινίας: Crime, Drama, Film-Noir
Χώρα παραγωγής: USA

Υποτιτλισμός: ΧΡΗΣΤΟΣ

Ο Μπράντι Κέρμπι και ο διεφθαρμένος δικηγόρος Βίνσεντ Μέιγερ σχεδιάζουν να κλέψουν τον Γουίλιαμ και την Μάιντα ΜακΙντάιρ, οργανώνοντας την αρπαγή της περιουσίας με τέτοιο τρόπο ώστε οι υποψίες να πέσουν στον εδώ και πάρα πολύ καιρό εξαφανισμένο γιο του ζευγαριού. Μάλιστα ο Κέρμπι πείθει τον τζογαδόρο Λέφτι Φάρελ να υποδυθεί τον γιο. Η Κάθι, ανιψιά των ΜακΙντάιρ που συμπαθεί τον Λέφτι, αναλαμβάνει να τον συστήσει στους υποτιθέμενους γονείς του, οι οποίοι αρκετά εύκολα πείθονται ότι πρόκειται για τον πραγματικό γιο τους. Τα προβλήματα για το καλό οργανωμένο έγκλημα όμως ξεκινούν όταν ο γέρος αρνείται ν’ αλλάξει τη διαθήκη του…

[video][Πρέπει να είστε εγγεγραμμένοι και συνδεδεμένοι για να δείτε αυτόν το σύνδεσμο.]



Κώδικας:
http://www.imdb.com/title/tt0044159/

ΤΕΧΝΙΚΑ ΧΑΡΑΚΤΗΡΙΣΤΙΚΑ

Σπόιλερ:

General

Complete name : Two.of.a.Kind.1951.DVDRip.x264-HANDJOB.mkv

Format : Matroska

Format version : Version 4 / Version 2

File size : 1.40 GiB

Duration : 1 h 15 min

Overall bit rate : 2 665 kb/s

Encoded date : UTC 2016-10-13 09:31:18

Writing application : mkvmerge v9.4.0 ('Knurl') 32bit

Writing library : libebml v1.3.4 + libmatroska v1.4.5

Video

ID : 1

Format : AVC

Format/Info : Advanced Video Codec

Format profile : High@L4.1

Format settings, CABAC : Yes

Format settings, ReFrames : 5 frames

Codec ID : V_MPEG4/ISO/AVC

Duration : 1 h 15 min

Bit rate : 2 472 kb/s

Width : 656 pixels

Height : 480 pixels

Display aspect ratio : 4:3

Frame rate mode : Constant

Frame rate : 23.976 (24000/1001) FPS

Color space : YUV

Chroma subsampling : 4:2:0

Bit depth : 8 bits

Scan type : Progressive

Bits/(Pixel*Frame) : 0.327

Stream size : 1.30 GiB (93%)

Writing library : x264 core 142 r2479 dd79a61

Encoding settings : cabac=1 / ref=5 / deblock=1👎-1 / analyse=0x3:0x113 / me=hex / subme=7 / psy=1 / psy_rd=1.00:0.15 / mixed_ref=1 / me_range=16 / chroma_me=1 / trellis=1 / 8x8dct=1 / cqm=0 / deadzone=21,11 / fast_pskip=1 / chroma_qp_offset=-3 / threads=3 / lookahead_threads=1 / sliced_threads=0 / nr=0 / decimate=1 / interlaced=0 / bluray_compat=0 / constrained_intra=0 / bframes=5 / b_pyramid=2 / b_adapt=1 / b_bias=0 / direct=1 / weightb=1 / open_gop=0 / weightp=2 / keyint=240 / keyint_min=23 / scenecut=40 / intra_refresh=0 / rc_lookahead=40 / rc=2pass / mbtree=1 / bitrate=2472 / ratetol=1.0 / qcomp=0.60 / qpmin=0 / qpmax=69 / qpstep=4 / cplxblur=20.0 / qblur=0.5 / vbv_maxrate=50000 / vbv_bufsize=62500 / nal_hrd=none / filler=0 / ip_ratio=1.40 / aq=1:1.00

Default : Yes

Forced : No

Audio

ID : 2

Format : AC-3

Format/Info : Audio Coding 3

Mode extension : CM (complete main)

Format settings, Endianness : Big

Codec ID : A_AC3

Duration : 1 h 15 min

Bit rate mode : Constant

Bit rate : 192 kb/s

Channel(s) : 2 channels

Channel positions : Front: L R

Sampling rate : 48.0 kHz

Frame rate : 31.250 FPS (1536 spf)

Compression mode : Lossy

Stream size : 103 MiB (7%)

Language : English

Default : Yes

Forced : No








Επισκόπηση προηγούμενης Θ.Ενότητας Επισκόπηση επόμενης Θ.Ενότητας Επιστροφή στην κορυφή  Μήνυμα [Σελίδα 1 από 1]


Δικαιώματα σας στην κατηγορία αυτή
Δεν μπορείτε να απαντήσετε στα Θέματα αυτής της Δ.Συζήτησης

Τρόποι Κοινοποίησης:
URL:
BBCode:
HTML: