Μη Συνδεδεμενος Παρακαλώ συνδεθείτε ή εγγραφείτε

Επισκόπηση προηγούμενης Θ.Ενότητας Επισκόπηση επόμενης Θ.Ενότητας Πήγαινε κάτω  Μήνυμα [Σελίδα 1 από 1]

#1
 POPIKOSTAS




UP CLOSE & PERSONAL (1996) DVDRip - AC3 - hotpena - ΞΕΧΩΡΙΣΤΟΙ ΥΠΟΤΙΤΛΟΙ

Σκηνοθεσία: Jon Avnet
Σενάριο: Joan Didion, John Gregory Dunne
Ηθοποιοί: Robert Redford, Michelle Pfeiffer, Stockard Channing, Joe Mantegna, Kate Nelligan, Glenn Plummer, James Rebhorn, Scott Bryce, Raymond Cruz, Dedee Pfeiffer, Miguel Sandoval, Noble Willingham, James Karen, Brian Markinson, Michael Laskin
Είδος ταινίας: Drama , Romance
Χώρα παραγωγής: USA

Υποτιτλισμός: The_Sisters_Karamazov 2

Η Michelle Pfeifer είναι η φέρελπις νέα δημοσιογράφος και ο Robert Redford ο διευθυντής ειδήσεων του τηλεοπτικού καναλιού, που θα της μάθει τα μυστικά του επαγγέλματος οδηγώντας την στην καταξίωση. Φυσικό επόμενο είναι δυο τόσο λαμπεροί άνθρωποι να ερωτευτούν, να παντρευτούν για να ζήσουν ακόμη και τον ίδιο το γάμο τους κάτω από το πρίσμα των επαγγελματικών υποχρεώσεων.

[video][Πρέπει να είστε εγγεγραμμένοι και συνδεδεμένοι για να δείτε αυτόν το σύνδεσμο.]



Κώδικας:
http://www.imdb.com/title/tt0118055/

ΤΕΧΝΙΚΑ ΧΑΡΑΚΤΗΡΙΣΤΙΚΑ

Σπόιλερ:

General

Complete name : Up Close And Personal 1996 DVDRip XviD AC3 hotpena.avi

Format : AVI

Format/Info : Audio Video Interleave

Format profile : OpenDML

File size : 1.52 GiB

Duration : 1h 59mn

Overall bit rate : 1 829 Kbps

Movie name : UP_CLOSE_AND_PERSONAL.Title4.DVDRip

Writing application : Lavf52.78.4

Original source form/Name : UP_CLOSE_AND_PERSONAL

Video

ID : 0

Format : MPEG-4 Visual

Format profile : Advanced Simple@L5

Format settings, BVOP : 2

Format settings, QPel : No

Format settings, GMC : No warppoints

Format settings, Matrix : Default (H.263)

Muxing mode : Packed bitstream

Codec ID : DX50

Codec ID/Hint : DivX 5

Duration : 1h 59mn

Bit rate : 1 369 Kbps

Width : 720 pixels

Height : 384 pixels

Display aspect ratio : 1.875

Frame rate : 25.000 fps

Color space : YUV

Chroma subsampling : 4:2:0

Bit depth : 8 bits

Scan type : Progressive

Compression mode : Lossy

Bits/(Pixel*Frame) : 0.198

Stream size : 1.14 GiB (75%)

Writing library : XviD 1.2.1 (UTC 2008-12-04)

Audio

ID : 1

Format : AC-3

Format/Info : Audio Coding 3

Mode extension : CM (complete main)

Codec ID : 2000

Duration : 1h 59mn

Bit rate mode : Constant

Bit rate : 448 Kbps

Channel(s) : 6 channels

Channel positions : Front: L C R, Side: L R, LFE

Sampling rate : 48.0 KHz

Bit depth : 16 bits

Compression mode : Lossy

Stream size : 382 MiB (24%)

Alignment : Aligned on interleaves

Interleave, duration : 32 ms (0.80 video frame)

Interleave, preload duration : 32 ms








Επισκόπηση προηγούμενης Θ.Ενότητας Επισκόπηση επόμενης Θ.Ενότητας Επιστροφή στην κορυφή  Μήνυμα [Σελίδα 1 από 1]


Δικαιώματα σας στην κατηγορία αυτή
Δεν μπορείτε να απαντήσετε στα Θέματα αυτής της Δ.Συζήτησης

Τρόποι Κοινοποίησης:
URL:
BBCode:
HTML: