Μη Συνδεδεμενος Παρακαλώ συνδεθείτε ή εγγραφείτε

Επισκόπηση προηγούμενης Θ.Ενότητας Επισκόπηση επόμενης Θ.Ενότητας Πήγαινε κάτω  Μήνυμα [Σελίδα 1 από 1]

#1
 POPIKOSTAS




THE BARKLEYS OF BROADWAY (1949) DVDRip - HANDJOB - ΞΕΧΩΡΙΣΤΟΙ ΥΠΟΤΙΤΛΟΙ

Σκηνοθεσία: Charles Walters
Σενάριο: Betty Comden , Adolph Green
Ηθοποιοί: Fred Astaire, Ginger Rogers, Oscar Levant, Billie Burke, Gale Robbins, Jacques Francois, George Zucco, Clinton Sundberg, Inez Cooper, Carol Brewster, Wilson Wood
Είδος ταινίας: Comedy, Musical
Χώρα παραγωγής: USA

Υποτιτλισμός: miki-mik7

Συγχρονισμός: ArieL

- Πλοκή:

Ο Τζος Μπάρκλεϊ και η σύζυγος του, Ντάινα, είναι ένα επιτυχημένο ντουέτο στον χορό και την κωμωδία. Αυτή, όμως, δεν αντέχει άλλο να είναι υπό τη σκιά του, αλλά επιθυμεί να κάνει κάτι πιο προσωπικό. Όταν ο θεατρικός συγγραφέας Μπαρεντού την οραματίζεται ως μεγάλη δραματική ηθοποιό, η Ντάινα αρπάζει την ευκαιρία και φεύγει μακριά. Όμως, ο Τζος δεν έχει πει την τελευταία του κουβέντα και το επόμενο που θα κάνει είναι να την κυνηγήσει.

[video][Πρέπει να είστε εγγεγραμμένοι και συνδεδεμένοι για να δείτε αυτόν το σύνδεσμο.]



Κώδικας:
http://www.imdb.com/title/tt0041158/

ΤΕΧΝΙΚΑ ΧΑΡΑΚΤΗΡΙΣΤΙΚΑ

Σπόιλερ:

General

Complete name : The.Barkleys.of.Broadway.1949.DVDRip.x264-HANDJOB.mkv

Format : Matroska

Format version : Version 2

File size : 1.76 GiB

Duration : 1 h 48 min

Overall bit rate : 2 309 kb/s

Movie name : The Barkleys of Broadway.1949.DVDRip.x264-HANDJOB.mkv

Released date : May 4, 1949

Writing application : HandBrake rev0

Writing library : libmkv 0.6.5

DIRECTOR : Charles Walters

SUMMARY : A Metro-Goldwyn-Mayer Picture

Video

ID : 1

Format : AVC

Format/Info : Advanced Video Codec

Format profile : High@L3.1

Format settings, CABAC : Yes

Format settings, ReFrames : 9 frames

Codec ID : V_MPEG4/ISO/AVC

Duration : 1 h 48 min

Bit rate : 2 071 kb/s

Width : 720 pixels

Height : 480 pixels

Display aspect ratio : 4:3

Frame rate mode : Constant

Frame rate : 23.976 (24000/1001) FPS

Color space : YUV

Chroma subsampling : 4:2:0

Bit depth : 8 bits

Scan type : Progressive

Bits/(Pixel*Frame) : 0.250

Stream size : 1.58 GiB (90%)

Writing library : x264 core 130 r2273 b3065e6

Encoding settings : cabac=1 / ref=9 / deblock=1:-3:-3 / analyse=0x3:0x133 / me=umh / subme=9 / psy=1 / psy_rd=1.00:0.00 / mixed_ref=1 / me_range=24 / chroma_me=1 / trellis=2 / 8x8dct=1 / cqm=0 / deadzone=21,11 / fast_pskip=0 / chroma_qp_offset=-2 / threads=12 / lookahead_threads=1 / sliced_threads=0 / nr=0 / decimate=1 / interlaced=0 / bluray_compat=0 / constrained_intra=0 / bframes=6 / b_pyramid=2 / b_adapt=2 / b_bias=0 / direct=3 / weightb=1 / open_gop=0 / weightp=2 / keyint=240 / keyint_min=24 / scenecut=40 / intra_refresh=0 / rc_lookahead=60 / rc=crf / mbtree=1 / crf=17.0 / qcomp=0.60 / qpmin=0 / qpmax=69 / qpstep=4 / ip_ratio=1.40 / aq=1:1.00

Language : English

Default : Yes

Forced : No

Color range : Limited

Color primaries : BT.601 NTSC

Transfer characteristics : BT.709

Matrix coefficients : BT.601

Audio

ID : 2

Format : AC-3

Format/Info : Audio Coding 3

Mode extension : CM (complete main)

Format settings, Endianness : Big

Codec ID : A_AC3

Duration : 1 h 48 min

Bit rate mode : Constant

Bit rate : 192 kb/s

Channel(s) : 1 channel

Channel positions : Front: C

Sampling rate : 48.0 kHz

Frame rate : 31.250 FPS (1536 spf)

Compression mode : Lossy

Stream size : 150 MiB (8%)

Language : English

Default : Yes

Forced : No

Text [Πρέπει να είστε εγγεγραμμένοι και συνδεδεμένοι για να δείτε αυτόν το σύνδεσμο.]

ID : 3

Format : VobSub

Codec ID : S_VOBSUB

Codec ID/Info : Picture based subtitle format used on DVDs

Language : English

Default : No

Forced : No








Επισκόπηση του προφίλ των χρηστών

Επισκόπηση προηγούμενης Θ.Ενότητας Επισκόπηση επόμενης Θ.Ενότητας Επιστροφή στην κορυφή  Μήνυμα [Σελίδα 1 από 1]


Δικαιώματα σας στην κατηγορία αυτή
Δεν μπορείτε να απαντήσετε στα Θέματα αυτής της Δ.Συζήτησης

Τρόποι Κοινοποίησης:
URL:
BBCode:
HTML: