Μη Συνδεδεμενος Παρακαλώ συνδεθείτε ή εγγραφείτε

Επισκόπηση προηγούμενης Θ.Ενότητας Επισκόπηση επόμενης Θ.Ενότητας Πήγαινε κάτω  Μήνυμα [Σελίδα 1 από 1]

#1
 POPIKOSTAS




MOON OVER MIAMI (1941) DVDRip - ΞΕΧΩΡΙΣΤΟΙ ΥΠΟΤΙΤΛΟΙ



Σκηνοθεσία: Walter Lang | Σενάριο: Vincent Lawrence, Brown Holmes | Ηθοποιοί: Don Ameche, Betty Grable, Robert Cummings, Carole Landis, Jack Haley

Είδος:  Comedy, Musical, Romance
Διάρκεια: 91min
Υπότιτλοι: Μιχαήλ

Οι αδερφές Κέι και Μπάρμπαρα εργάζονται ως σερβιτόρες σε ντράιβ-ιν ρεστοράν του Τέξας, μαζί με τη θεία τους Σούζαν. Λαμβάνουν μία κληρονομιά, την οποία ενώ περίμεναν ότι θα είναι της τάξεως των 55.000 δολαρίων, αυτή μετά τους φόρους καταλήγει να είναι 4.000 δολάρια. Η Κέι πείθει τότε αδερφή και θεία να ξοδέψουν τα χρήματα για ταξίδι στο Μαϊάμι, ώστε εκεί να βρουν πλούσιους να τους παντρευτούν. Η Μπάρμπαρα αναλαμβάνει στο Μαϊάμι να υποδυθεί τον ρόλο της γραμματέως της Κέι και η θεία Σούζαν της υπηρέτριας. Καταυλίζονται στο ξενοδοχείο Φλαμίνγκο και τα μπλεξίματα ξεκινούν όταν γνωρίζουν τον μπάρμαν του ξενοδοχείου Τζακ, ο οποίος μισεί όλους τους προικοθήρες που συγκεντρώνονται στην περιοχή.


[video][Πρέπει να είστε εγγεγραμμένοι και συνδεδεμένοι για να δείτε αυτόν το σύνδεσμο.]



Κώδικας:
http://www.imdb.com/title/tt0033918/

ΤΕΧΝΙΚΑ ΧΑΡΑΚΤΗΡΙΣΤΙΚΑ

Σπόιλερ:

General
Complete name               : Moon Over Miami (1941) DVDRip XviD SN.avi
Format                      : AVI
Format/Info                 : Audio Video Interleave
Format profile              : OpenDML
File size                   : 1.07 GiB
Duration                    : 1 h 31 min
Overall bit rate            : 1 668 kb/s
Writing application         : MEncoder SVN-r33883(20110719-gcc4.5.2)
Writing library             : MPlayer

Video
ID                          : 0
Format                      : MPEG-4 Visual
Format profile              : Advanced Simple@L5
Format settings             : BVOP2
Format settings, BVOP       : 2
Format settings, QPel       : No
Format settings, GMC        : No warppoints
Format settings, Matrix     : Default (H.263)
Codec ID                    : XVID
Codec ID/Hint               : XviD
Duration                    : 1 h 31 min
Bit rate                    : 1 524 kb/s
Width                       : 592 pixels
Height                      : 480 pixels
Display aspect ratio        : 1.223
Original display aspect rat : 1.222
Frame rate                  : 25.000 FPS
Color space                 : YUV
Chroma subsampling          : 4:2:0
Bit depth                   : 8 bits
Scan type                   : Progressive
Compression mode            : Lossy
Bits/(Pixel*Frame)          : 0.215
Stream size                 : 1 000 MiB (91%)
Writing library             : XviD 1.2.1 (UTC 2008-12-04)

Audio
ID                          : 1
Format                      : MPEG Audio
Format version              : Version 1
Format profile              : Layer 3
Format settings             : Joint stereo / MS Stereo
Mode                        : Joint stereo
Mode extension              : MS Stereo
Codec ID                    : 55
Codec ID/Hint               : MP3
Duration                    : 1 h 31 min
Bit rate mode               : Constant
Bit rate                    : 128 kb/s
Channel(s)                  : 2 channels
Sampling rate               : 44.1 kHz
Compression mode            : Lossy
Delay relative to video     : 40 ms
Stream size                 : 83.9 MiB (8%)
Alignment                   : Aligned on interleaves
Interleave, duration        : 26  ms (0.65 video frame)
Interleave, preload duratio : 522  ms








Επισκόπηση προηγούμενης Θ.Ενότητας Επισκόπηση επόμενης Θ.Ενότητας Επιστροφή στην κορυφή  Μήνυμα [Σελίδα 1 από 1]


Δικαιώματα σας στην κατηγορία αυτή
Δεν μπορείτε να απαντήσετε στα Θέματα αυτής της Δ.Συζήτησης

Τρόποι Κοινοποίησης:
URL:
BBCode:
HTML: