Μη Συνδεδεμενος Παρακαλώ συνδεθείτε ή εγγραφείτε

Επισκόπηση προηγούμενης Θ.Ενότητας Επισκόπηση επόμενης Θ.Ενότητας Πήγαινε κάτω  Μήνυμα [Σελίδα 1 από 1]

#1
 POPIKOSTAS




SUN VALLEY SERENADE (1941) 720p WEBRip - ΞΕΧΩΡΙΣΤΟΙ ΥΠΟΤΙΤΛΟΙ



Σκηνοθεσία: H. Bruce Humberstone | Σενάριο: Robert Ellis, Helen Logan Ηθοποιοί: Sonja Henie, John Payne, Glenn Miller

Είδος: Κωμωδία Ρομάντζο

Οι Τροβαδούροι του Ντάρμουθ έχουν ένα σημαντικό πρόβλημα: Δεν έχουν δουλειά. Ο φιλότιμος ατζέντης τους τούς τραβολογάει στο στούντιο όπου κάνει ο οντισιόν ο ιδιοκτήτης ενός μεγάλου χειμερινού θέρετρου που θέλει να εμπλουτίσει το καλλιτεχνικό περιεχόμενο για την περίοδο του σκι. Η άσημη μπάντα δεν έχει καμία τύχη, ώσπου η τραγουδίστρια Βίβιαν Ντον, σίγουρη συμμετοχή για το πρόγραμμα στο θέρετρο, τσακώνεται με τη δική της μπάντα. Ο ατζέντης δράττεται της ευκαιρίας και συστήνει τη δική του μπάντα στην τραγουδίστρια. Η οντισιόν κρίνεται επιτυχής κι όλοι ετοιμάζονται να μεταβούν στα χιόνια. Ταυτόχρονα το ειδύλλιο ανάμεσα στον πιανίστα της μπάντας Τεντ Σκοτ και την Βίβιαν δεν αργεί να έρθει. Όταν όμως εμφανίζεται μία όχι και τόσο μικρή σε ηλικία προσφυγοπούλα, αποτέλεσμα ενός παλιού διαφημιστικού κόλπου, που πρέπει υποχρεωτικά να μείνει με τον Τεντ, οι καταστάσεις αλλάζουν άρδην!


Υπότιτλος από: Άγνωστος


[video][Πρέπει να είστε εγγεγραμμένοι και συνδεδεμένοι για να δείτε αυτόν το σύνδεσμο.]



Κώδικας:
http://www.imdb.com/title/tt0034241/?ref_=ttfc_fc_tt

ΤΕΧΝΙΚΑ ΧΑΡΑΚΤΗΡΙΣΤΙΚΑ

Σπόιλερ:

General
Complete name               : Sun.Valley.Serenade.1941.720p.WEBRip.AAC2.0.x264-SbR.mkv
Format                      : Matroska
Format version              : Version 2
File size                   : 2.45 GiB
Duration                    : 1 h 26 min
Overall bit rate            : 4 085 kb/s
Encoded date                : UTC 2017-05-22 21:19:25
Writing application         : mkvmerge v11.0.0 ('Alive') 64bit
Writing library             : libebml v1.3.4 + libmatroska v1.4.5
Cover                       : Yes
Attachments                 : cover.jpg

Video
ID                          : 1
Format                      : AVC
Format/Info                 : Advanced Video Codec
Format profile              : High@L3.1
Format settings             : 2 Ref Frames
Format settings, CABAC      : No
Format settings, RefFrames  : 2 frames
Codec ID                    : V_MPEG4/ISO/AVC
Duration                    : 1 h 26 min
Bit rate                    : 3 963 kb/s
Width                       : 992 pixels
Height                      : 720 pixels
Display aspect ratio        : 1.378
Frame rate mode             : Constant
Frame rate                  : 23.976 (23976/1000) FPS
Color space                 : YUV
Chroma subsampling          : 4:2:0
Bit depth                   : 8 bits
Scan type                   : Progressive
Bits/(Pixel*Frame)          : 0.231
Stream size                 : 2.38 GiB (97%)
Language                    : English
Default                     : Yes
Forced                      : No
Color range                 : Limited
Color primaries             : BT.709
Transfer characteristics    : BT.709
Matrix coefficients         : BT.709

Audio
ID                          : 2
Format                      : AAC
Format/Info                 : Advanced Audio Codec
Format profile              : LC
Codec ID                    : A_AAC-2
Duration                    : 1 h 26 min
Bit rate                    : 119 kb/s
Channel(s)                  : 2 channels
Channel positions           : Front: L R
Sampling rate               : 48.0 kHz
Frame rate                  : 46.875 FPS (1024 SPF)
Compression mode            : Lossy
Stream size                 : 72.9 MiB (3%)
Language                    : English
Default                     : Yes
Forced                      : No

Text [Πρέπει να είστε εγγεγραμμένοι και συνδεδεμένοι για να δείτε αυτόν το σύνδεσμο.]
ID                          : 3
Format                      : UTF-8
Codec ID                    : S_TEXT/UTF8
Codec ID/Info               : UTF-8 Plain Text
Duration                    : 1 h 24 min
Bit rate                    : 56 b/s
Count of elements           : 778
Stream size                 : 34.7 KiB (0%)
Language                    : English
Default                     : No
Forced                      : No

Text [Πρέπει να είστε εγγεγραμμένοι και συνδεδεμένοι για να δείτε αυτόν το σύνδεσμο.]
ID                          : 4
Format                      : UTF-8
Codec ID                    : S_TEXT/UTF8
Codec ID/Info               : UTF-8 Plain Text
Duration                    : 1 h 25 min
Bit rate                    : 71 b/s
Count of elements           : 912
Stream size                 : 44.4 KiB (0%)
Title                       : SDH
Language                    : English
Default                     : No
Forced                      : No








Επισκόπηση προηγούμενης Θ.Ενότητας Επισκόπηση επόμενης Θ.Ενότητας Επιστροφή στην κορυφή  Μήνυμα [Σελίδα 1 από 1]


Δικαιώματα σας στην κατηγορία αυτή
Δεν μπορείτε να απαντήσετε στα Θέματα αυτής της Δ.Συζήτησης

Τρόποι Κοινοποίησης:
URL:
BBCode:
HTML: