Μη Συνδεδεμενος Παρακαλώ συνδεθείτε ή εγγραφείτε

Επισκόπηση προηγούμενης Θ.Ενότητας Επισκόπηση επόμενης Θ.Ενότητας Πήγαινε κάτω  Μήνυμα [Σελίδα 1 από 1]

#1
 POPIKOSTAS




BLACKADDER'S CHRISTMAS CAROL (1988) DVDRip - ΕΝΣΩΜΑΤΩΜΕΝΟΙ ΥΠΟΤΙΤΛΟΙ

Χώρα παραγωγής: Βρετανία
Χρονιά παραγωγής: 1988
Πρώτη προβολή στη Βρετανία: 23 Δεκεμβρίου 1988 στο BBC One
Διάρκεια: 00:43:19
Κατηγορία: Διακωμώδηση Παραδοσιακής Εξιστόρησης

Ερμηνεύουν:
Rowan Atkinson στους ρόλους του Ebenezer Blackadder,
των προγόνων και των επιγόνων του
Tony Robinson στο ρόλο του Βaldrick ως υπηρέτη και συνοδού του Blackadder
Miranda Richardson στους ρόλους της Βασίλισσας Ελισάβετ
και της Ασφυξίας της 19ης.
Stephen Fry στους ρόλους του Λόρδου Melchett και του Frondo
Hugh Laurie στους ρόλους του Πρίγκηπα Regent και του Pigmot
Robbie Coltraine στο ρόλο του Πνεύματος των Χριστουγέννων
Miriam Margolyes στο ρόλο της Βασίλισσας Βικτωρίας
Jim Broadbent στο ρόλο του Πρίγκηπα Αλβέρτου, συζύγου της Βικτωρίας
Pauline Melville στο ρόλο της κυρίας Scratchit
Philip Pope στο ρόλο του Λόρδου Nelson
Nicola Bryant στο ρόλο της Millicent, ανηψιάς του Ebenezer Blackadder
Ramsay Gilderdale στο ρόλο του αρραβωνιαστικού της Millicent, Ralph

Σκηνοθεσία: Richard Boden
Παραγωγή: John Lloyd
Σενάριο: Richard Curtis και Ben Elton,
βασιζόμενοι φυσικά στην πασίγνωστη ιστορία του Charles Dickens
Μουσική: Howard Goodall
Παραγωγή: BBC

ΥΠΟΘΕΣΗ

Μια τηλεοπτική ταινία, που παρουσιάζει την "Χριστουγεννιάτικη Ιστορία" με πολύ διαφορετικό τρόπο από τους συνήθεις. Ο Εμπενίζερ Μπλακάντερ, ένας αγαθός έμπορος που ζει στο Βικτωριανό Λονδίνο είναι το μαύρο πρόβατο της σιχαμένης δυναστείας των προγόνων του. Καλός, πρόθυμος να βοηθάει τους ανήμπορους και γενναιόδωρος σε όσους έχουν ανάγκη, πέφτει για ύπνο το βράδυ της Παραμονής των Χριστουγέννων με ελαφριά τη συνείδησή του. Η ξαφνική εμφάνιση, όμως, του Πνεύματος των Χριστουγέννων θα ανατρέψει τη ζωή του.

[video][Πρέπει να είστε εγγεγραμμένοι και συνδεδεμένοι για να δείτε αυτόν το σύνδεσμο.]



Κώδικας:
http://www.imdb.com/title/tt0094754/

ΤΕΧΝΙΚΑ ΧΑΡΑΚΤΗΡΙΣΤΙΚΑ

Σπόιλερ:

General
Complete name               : Blackadder's Christmas Carol.1988.DVDRip.x264.AC3.mkv
Format                      : Matroska
Format version              : Version 2
File size                   : 748 MiB
Duration                    : 43 min 19 s
Overall bit rate            : 2 414 kb/s
Writing application         : HandBrake 0.9.9
Writing library             : libmkv 0.6.5

Video
ID                          : 1
Format                      : AVC
Format/Info                 : Advanced Video Codec
Format profile              : High@L4
Format settings             : CABAC / 4 Ref Frames
Format settings, CABAC      : Yes
Format settings, RefFrames  : 4 frames
Codec ID                    : V_MPEG4/ISO/AVC
Duration                    : 43 min 19 s
Bit rate                    : 2 210 kb/s
Width                       : 720 pixels
Height                      : 544 pixels
Display aspect ratio        : 4:3
Frame rate mode             : Constant
Frame rate                  : 25.000 FPS
Color space                 : YUV
Chroma subsampling          : 4:2:0
Bit depth                   : 8 bits
Scan type                   : Progressive
Bits/(Pixel*Frame)          : 0.226
Stream size                 : 674 MiB (90%)
Writing library             : x264 core 130 r2273 b3065e6
Encoding settings           : cabac=1 / ref=1 / deblock=1👎-1 / analyse=0x3:0x113 / me=hex / subme=2 / psy=1 / psy_rd=1.00:0.15 / mixed_ref=0 / me_range=16 / chroma_me=1 / trellis=0 / 8x8dct=1 / cqm=0 / deadzone=21,11 / fast_pskip=1 / chroma_qp_offset=0 / threads=6 / lookahead_threads=2 / sliced_threads=0 / nr=0 / decimate=1 / interlaced=0 / bluray_compat=0 / constrained_intra=0 / bframes=3 / b_pyramid=2 / b_adapt=1 / b_bias=0 / direct=1 / weightb=1 / open_gop=0 / weightp=1 / keyint=250 / keyint_min=25 / scenecut=40 / intra_refresh=0 / rc_lookahead=10 / rc=abr / mbtree=1 / bitrate=2210 / ratetol=1.0 / qcomp=0.60 / qpmin=0 / qpmax=69 / qpstep=4 / vbv_maxrate=25000 / vbv_bufsize=31250 / nal_hrd=none / ip_ratio=1.40 / aq=1:1.00
Language                    : English
Default                     : Yes
Forced                      : No
Color range                 : Limited
Color primaries             : BT.601 PAL
Transfer characteristics    : BT.709
Matrix coefficients         : BT.601

Audio
ID                          : 2
Format                      : AC-3
Format/Info                 : Audio Coding 3
Format settings, Endianness : Big
Codec ID                    : A_AC3
Duration                    : 43 min 19 s
Bit rate mode               : Constant
Bit rate                    : 192 kb/s
Channel(s)                  : 2 channels
Channel positions           : Front: L R
Sampling rate               : 48.0 kHz
Frame rate                  : 31.250 FPS (1536 SPF)
Bit depth                   : 16 bits
Compression mode            : Lossy
Stream size                 : 59.5 MiB (8%)
Language                    : English
Service kind                : Complete Main
Default                     : Yes
Forced                      : No

Text
ID                          : 3
Format                      : VobSub
Codec ID                    : S_VOBSUB
Codec ID/Info               : Picture based subtitle format used on DVDs
Language                    : Greek
Default                     : Yes
Forced                      : No








Επισκόπηση προηγούμενης Θ.Ενότητας Επισκόπηση επόμενης Θ.Ενότητας Επιστροφή στην κορυφή  Μήνυμα [Σελίδα 1 από 1]


Δικαιώματα σας στην κατηγορία αυτή
Δεν μπορείτε να απαντήσετε στα Θέματα αυτής της Δ.Συζήτησης

Τρόποι Κοινοποίησης:
URL:
BBCode:
HTML: