Μη Συνδεδεμενος Παρακαλώ συνδεθείτε ή εγγραφείτε

Επισκόπηση προηγούμενης Θ.Ενότητας Επισκόπηση επόμενης Θ.Ενότητας Πήγαινε κάτω  Μήνυμα [Σελίδα 1 από 1]

#1
 POPIKOSTAS




LE CAVE SE REBIFFE (1961) DVDRip - ΞΕΧΩΡΙΣΤΟΙ ΥΠΟΤΙΤΛΟΙ



ΕΛΛΗΝΙΚΟΣ ΤΙΤΛΟΣ: ο παραχαράκτης
ΕΙΔΟΣ: Κωμωδία
ΣΥΓΓΡΑΦΕΑΣ: Albert Simonin
ΣΕΝΑΡΙΟ: Michel Audiard, Gilles Grangier, Albert Simonin
ΣΚΗΝΟΘΕΣΙΑ: Gilles Grangier
ΦΩΤΟΓΡΑΦΙΑ: Louis Page
ΜΟΥΣΙΚΗ: Michel Legrand, Francis Lemarque 
ΠΑΙΖΟΥΝ: Jean Gabin, Bernard Blier, Martine Carol, Francoise Rosay, Frank Villard, Maurice Biraud κ.ά.
ΕΤΟΣ ΚΥΚΛΟΦΟΡΙΑΣ: 1961
ΔΙΑΡΚΕΙΑ: 94 min
ΓΛΩΣΣΑ: Γαλλικά
ΥΠΟΤΙΤΛΟΙ: Ελληνικοί, σε ξεχωριστό αρχείο (srt), άγνωστος
Συγχρονισμός Υποτίτλων: Gandalf
DVDrip: Gandalf
Πηγή: DVD5 PAL



Ο Έρικ, ένας ανέντιμος μεταπωλητής αυτοκινήτων στο Παρίσι, έχει ερωτική σχέση με την Σολάνζ, της οποίας ο άνεργος άντρας Ρομπέρτ είναι εξειδικευμένος τυπογράφος και χαράκτης. Με τους δύο φίλους του, τον Τσαρλς και τον Λούκας, συζητά την ιδέα ότι θα μπορούσαν να χρησιμοποιήσουν τον Ρομπέρτ για να τυπώσουν κάποια πλαστά χαρτονομίσματα.
Γι' αυτό θα χρειαζόταν αυθεντικό χαρτί και αξιόπιστο χαράκτη.
Στην πραγματικότητα, αποφασίζουν, ότι πρέπει να καλέσουν έναν εμπειρογνώμονα κι ο καλύτερος άνθρωπος για τη δουλειά είναι ο Φερδινάνδος, που ζει, συνταξιούχος, στη Βενεζουέλα.

Ο Φερδινάνδος συμφωνεί να βοηθήσει, αλλά με την προϋπόθεση ότι θα πάρει τα μισά από τα κέρδη, κάτι που βάζει τους άλλους τρεις να βρούνε τρόπο για να του μειώσουν αυτό το μερίδιο...
   
[video][Πρέπει να είστε εγγεγραμμένοι και συνδεδεμένοι για να δείτε αυτόν το σύνδεσμο.]



Κώδικας:
http://www.imdb.com/title/tt0054734/

ΤΕΧΝΙΚΑ ΧΑΡΑΚΤΗΡΙΣΤΙΚΑ

Σπόιλερ:

General
Complete name               : Le.Cave.Se.Rebiffe.1961.DVDRip.x264.AC3.5.1.mkv
Format                      : Matroska
Format version              : Version 4 / Version 2
File size                   : 1.47 GiB
Duration                    : 1 h 33 min
Overall bit rate            : 2 251 kb/s
Writing application         : HandBrake 1.0.7 2017040900
Writing library             : Lavf57.7.2

Video
ID                          : 1
Format                      : AVC
Format/Info                 : Advanced Video Codec
Format profile              : High@L4.1
Format settings             : CABAC / 4 Ref Frames
Format settings, CABAC      : Yes
Format settings, ReFrames   : 4 frames
Codec ID                    : V_MPEG4/ISO/AVC
Duration                    : 1 h 33 min
Bit rate                    : 1 800 kb/s
Width                       : 720 pixels
Height                      : 432 pixels
Display aspect ratio        : 5:3
Frame rate mode             : Constant
Frame rate                  : 25.000 FPS
Color space                 : YUV
Chroma subsampling          : 4:2:0
Bit depth                   : 8 bits
Scan type                   : Progressive
Bits/(Pixel*Frame)          : 0.231
Stream size                 : 1.15 GiB (78%)
Writing library             : x264 core 148 r2708 86b7198

Audio
ID                          : 2
Format                      : AC-3
Format/Info                 : Audio Coding 3
Codec ID                    : A_AC3
Duration                    : 1 h 33 min
Bit rate mode               : Constant
Bit rate                    : 448 kb/s
Channel(s)                  : 6 channels
Channel positions           : Front: L C R, Side: L R, LFE
Sampling rate               : 48.0 kHz
Frame rate                  : 31.250 FPS (1536 SPF)
Bit depth                   : 16 bits
Compression mode            : Lossy
Stream size                 : 300 MiB (20%)
Title                       : Surround
Language                    : French
Service kind                : Complete Main
Default                     : Yes
Forced                      : No








Επισκόπηση του προφίλ των χρηστών

Επισκόπηση προηγούμενης Θ.Ενότητας Επισκόπηση επόμενης Θ.Ενότητας Επιστροφή στην κορυφή  Μήνυμα [Σελίδα 1 από 1]


Δικαιώματα σας στην κατηγορία αυτή
Δεν μπορείτε να απαντήσετε στα Θέματα αυτής της Δ.Συζήτησης

Τρόποι Κοινοποίησης:
URL:
BBCode:
HTML: