Μη Συνδεδεμενος Παρακαλώ συνδεθείτε ή εγγραφείτε

Επισκόπηση προηγούμενης Θ.Ενότητας Επισκόπηση επόμενης Θ.Ενότητας Πήγαινε κάτω  Μήνυμα [Σελίδα 1 από 1]

#1
 loufjohn


ΦΟΡΤΣΑ ΠΑΤΡΙΔΑ (2017-2018) WEBRip ERT





[Πρέπει να είστε εγγεγραμμένοι και συνδεδεμένοι για να δείτε αυτόν το σύνδεσμο.]



ΥΠΟΘΕΣΗ

Ο Γιάννης Ζουγανέλης, με τη βοήθεια του τηλεοπτικού φακού, θα εμβαθύνει στον παλμό της πόλης. Μια απρόβλεπτη, άκρως διαφορετική οπτική ματιά του κοινωνικοπολιτικού μας γίγνεσθαι,
με πολύ κέφι, τραγούδι, έμπνευση, κουβέντες του αέρα ή του «καθαρού» αέρα, μια και η εκπομπή ενίοτε θα επισκέπτεται και μεγάλες αστικές περιοχές της Ελλάδας. Ο Έλληνας της παρέας,
του κεφιού,
έστω και του ωχ… αδερφισμού!

Η προσέγγιση των διάφορων χαρακτήρων και καταστάσεων θα εξωτερικεύεται μέσα από μικρά δραματοποιημένα σκετς σε φυσικούς χώρους. Παράλληλα, με τη βοήθεια της κάμερας,
ο Γιάννης Ζουγανέλης θα διεισδύει σε διάφορους χώρους  και, με βασικό όπλο το χιούμορ, θα μεταφέρει τον παλμό της πόλης.
[Πρέπει να είστε εγγεγραμμένοι και συνδεδεμένοι για να δείτε αυτόν το σύνδεσμο.]



[Πρέπει να είστε εγγεγραμμένοι και συνδεδεμένοι για να δείτε αυτόν το σύνδεσμο.]



   General
      Complete name :ΦΟΡΤΣΑ ΠΑΤΡΙΔΑ\PATRIS.01.avi
      Format : AVI
      Format/Info : Audio Video Interleave
      File size : 1.09 GiB
      Duration : 53 min 20 s
      Overall bit rate : 2 933 kb/s
   Video [Πρέπει να είστε εγγεγραμμένοι και συνδεδεμένοι για να δείτε αυτόν το σύνδεσμο.]
      ID : 0
      Format : AVC
      Format/Info : Advanced Video Codec
      Format profile : Baseline@L3.1
      Format settings, CABAC : No
      Format settings, ReFrames : 1 frame
      Codec ID : H264
      Duration : 53 min 20 s
      Bit rate : 2 792 kb/s
      Width : 1 280 pixels
      Height : 720 pixels
      Display aspect ratio : 16:9
      Frame rate : 25.000 FPS
      Color space : YUV
      Chroma subsampling : 4:2:0
      Bit depth : 8 bits
      Scan type : Progressive
      Bits/(Pixel*Frame) : 0.121
      Stream size : 1.04 GiB (95%)
      Writing library : x264 core 146 r2538 121396c
  
   Audio [Πρέπει να είστε εγγεγραμμένοι και συνδεδεμένοι για να δείτε αυτόν το σύνδεσμο.]
      ID : 1
      Format : MPEG Audio
      Format version : Version 1
      Format profile : Layer 3
      Codec ID : 55
      Codec ID/Hint : MP3
      Duration : 53 min 20 s
      Bit rate mode : Constant
      Bit rate : 128 kb/s
      Channel(s) : 2 channels
      Sampling rate : 44.1 kHz
      Compression mode : Lossy
      Stream size : 48.8 MiB (4%)
      Alignment : Aligned on interleaves
      Interleave, duration : 26  ms (0.65 video frame)
 






[Πρέπει να είστε εγγεγραμμένοι και συνδεδεμένοι για να δείτε αυτόν το σύνδεσμο.]


[Πρέπει να είστε εγγεγραμμένοι και συνδεδεμένοι για να δείτε αυτόν το σύνδεσμο.]


         ΒΟΗΘΗΣΤΕ ΕΝΤΕΛΩΣ ΑΝΕΞΟΔΑ ΤΟΥΣ UPLOADERS, ΑΝΑΝΕΩΝΟΝΤΑΣ ΤΑΚΤΙΚΑ ΤΗΝ IP ΣΑΣ, ΜΕ 1 ΑΠΛΗ ΕΠΑΝΕΚΚΙΝΗΣΗ ΤΟΥ ROUTER.

 

[Πρέπει να είστε εγγεγραμμένοι και συνδεδεμένοι για να δείτε αυτόν το σύνδεσμο.]
                       



                        






Έχει επεξεργασθεί από τον/την loufjohn στις Κυρ Φεβ 18, 2018 10:15 am, 7 φορές συνολικά

Επισκόπηση του προφίλ των χρηστών

#2
 loufjohn


ΑΝΕΒΗΚΕ ΕΩΣ 04

Επισκόπηση του προφίλ των χρηστών

#3
 loufjohn


ΑΝΕΒΗΚΕ ΤΟ 02 ΠΟΥ ΕΛΕΙΠΕ ΚΑΙ ΤΟ ΚΑΙΝΟΥΡΓΙΟ 05

Επισκόπηση του προφίλ των χρηστών

#4
 loufjohn


ΑΝΕΒΗΚΕ ΕΩΣ 06

Επισκόπηση του προφίλ των χρηστών

#5
 loufjohn


ΑΝΕΒΗΚΕ ΕΩΣ 07

Επισκόπηση του προφίλ των χρηστών

#6
 loufjohn


ΑΝΕΒΗΚΕ ΕΩΣ 08

Επισκόπηση του προφίλ των χρηστών

#7
 loufjohn


ΑΝΕΒΗΚΕ ΕΩΣ 09

Επισκόπηση του προφίλ των χρηστών

#8
 loufjohn


ΑΝΕΒΗΚΕ ΕΩΣ 10

Επισκόπηση του προφίλ των χρηστών

#9
 loufjohn


ΑΝΕΒΗΚΕ ΕΩΣ 11

Επισκόπηση του προφίλ των χρηστών

Επισκόπηση προηγούμενης Θ.Ενότητας Επισκόπηση επόμενης Θ.Ενότητας Επιστροφή στην κορυφή  Μήνυμα [Σελίδα 1 από 1]


Δικαιώματα σας στην κατηγορία αυτή
Δεν μπορείτε να απαντήσετε στα Θέματα αυτής της Δ.Συζήτησης

Τρόποι Κοινοποίησης:
URL:
BBCode:
HTML: