Μη Συνδεδεμενος Παρακαλώ συνδεθείτε ή εγγραφείτε

Μετάβαση στη σελίδα : 1, 2  Επόμενο

Επισκόπηση προηγούμενης Θ.Ενότητας Επισκόπηση επόμενης Θ.Ενότητας Πήγαινε κάτω  Μήνυμα [Σελίδα 1 από 2]

#1
 loufjohn


SURVIVOR 2 (2018) SKAI WEBRip AVI ΣΥΝΕΧΗ ΑΝΑΝΕΩΣΗ





[Πρέπει να είστε εγγεγραμμένοι και συνδεδεμένοι για να δείτε αυτόν το σύνδεσμο.]


Η μεγάλη περιπέτεια του SURVIVAR 2 αρχίζει. 24 παίκτες έφτασαν στον εξωτικό Άγιο Δομίνικο όπου θα παραμείνουν για εβδομάδες, έχοντας στις αποσκευές τους τα απαραίτητα ρούχα και βασική προμήθεια φαγητού.
Η μεγάλη περιπέτεια αρχίζει ...





[Πρέπει να είστε εγγεγραμμένοι και συνδεδεμένοι για να δείτε αυτόν το σύνδεσμο.]



[Πρέπει να είστε εγγεγραμμένοι και συνδεδεμένοι για να δείτε αυτόν το σύνδεσμο.]


   General
      Complete name :SURVIVOR.S02.EP.01.1080p.avi
      Format : AVI
      Format/Info : Audio Video Interleave
      File size : 1.96 GiB
      Duration : 2 h 34 min
      Overall bit rate : 1 815 kb/s
   Video [Πρέπει να είστε εγγεγραμμένοι και συνδεδεμένοι για να δείτε αυτόν το σύνδεσμο.]
      ID : 0
      Format : AVC
      Format/Info : Advanced Video Codec
      Format profile : Baseline@L3.1
      Format settings, CABAC : No
      Format settings, ReFrames : 1 frame
      Codec ID : H264
      Duration : 2 h 34 min
      Bit rate : 1 674 kb/s
      Width : 1 280 pixels
      Height : 720 pixels
      Display aspect ratio : 16:9
      Frame rate : 25.000 FPS
      Color space : YUV
      Chroma subsampling : 4:2:0
      Bit depth : 8 bits
      Scan type : Progressive
      Bits/(Pixel*Frame) : 0.073
      Stream size : 1.81 GiB (92%)
      Writing library : x264 core 146 r2538 121396c
   
      ID : 1
      Format : MPEG Audio
      Format version : Version 1
      Format profile : Layer 3
      Codec ID : 55
      Codec ID/Hint : MP3
      Duration : 2 h 34 min
      Bit rate mode : Constant
      Bit rate : 128 kb/s
      Channel(s) : 2 channels
      Sampling rate : 48.0 kHz
      Compression mode : Lossy
      Stream size : 142 MiB (7%)
      Alignment : Aligned on interleaves
      Interleave, duration : 24  ms (0.60 video frame) 


[Πρέπει να είστε εγγεγραμμένοι και συνδεδεμένοι για να δείτε αυτόν το σύνδεσμο.]


[Πρέπει να είστε εγγεγραμμένοι και συνδεδεμένοι για να δείτε αυτόν το σύνδεσμο.]



[Πρέπει να είστε εγγεγραμμένοι και συνδεδεμένοι για να δείτε αυτόν το σύνδεσμο.]

                        






Έχει επεξεργασθεί από τον/την loufjohn στις Παρ Απρ 13, 2018 8:35 am, 49 φορές συνολικά

#2
 loufjohn


ΑΝΕΒΗΚΕ ΤΟ 2 ΕΠΕΙΣΟΔΙΟ (22/1/2018)

#3
 loufjohn


ΑΝΕΒΗΚΕ ΕΩΣ 03

#4
 loufjohn


ΑΝΕΒΗΚΕ ΕΩΣ ΤΟ 04 (24/1/2018)

#5
 loufjohn


ΑΝΕΒΗΚΕ ΕΩΣ 05 (28/1/2018)

#6
 loufjohn


ΑΝΕΒΗΚΕ ΕΩΣ 06 (29/1/2018)

#7
 loufjohn


ΑΝΕΒΗΚΕ ΕΩΣ 08 (31/1/2018)

#8
 loufjohn


ΑΝΕΒΗΚΕ ΕΩΣ 09

#9
 loufjohn


ΑΝΕΒΗΚΕ ΤΟ 10 (5/2/2018)

#10
 loufjohn


ΑΝΕΒΗΚΕ ΤΟ ΕΠΕΙΣΟΔΙΟ ΤΗΣ 6-2-2018

#11
 loufjohn


ΑΝΕΒΗΚΕ ΕΩΣ 12 (7/2/2018)

#12
 loufjohn


ΑΝΕΒΗΚΕ ΕΩΣ 13 (12/2/2018)

#13
 loufjohn


ΑΝΕΒΗΚΕ ΕΩΣ 14 (12/2/2018)

#14
 loufjohn


ΑΝΕΒΗΚΕ Η ΕΚΠΟΜΠΗ ΤΗΣ 13/2/2018

#15
 loufjohn


ΑΝΕΒΗΚΕ ΤΟ ΕΠΕΙΣΟΔΙΟ ΤΗΣ 14/2/2018

#16
 loufjohn


ΑΝΕΒΗΚΕ ΕΩΣ 18/2/2018

#17
 loufjohn


ΑΝΕΒΗΚΕ ΕΩΣ 18 (19/2/2018)

#18
 loufjohn


ΑΝΕΒΗΚΕ ΕΩΣ 19 (20/2/2018)

#19
 loufjohn


ΑΝΕΒΗΚΕ ΕΩΣ 20 (21/2/2018)

#20
 loufjohn


ΑΝΕΒΗΚΕ Η ΕΚΠΟΜΠΗ ΤΗΣ 25/2/2018

#21
 loufjohn


ΑΝΕΒΗΚΕ Η ΕΚΠΟΜΠΗ ΤΗΣ 26/2/2018

#22
 loufjohn


ΑΝΕΒΗΚΕ ΕΩΣ 23 (27/2/2018)

#23
 loufjohn


ΑΝΕΒΗΚΕ ΕΩΣ 24 (28/2/2018)

#24
 loufjohn


ΑΝΕΒΗΚΕ Η ΕΚΠΟΜΠΗ ΤΗΣ 1/3/2018

#25
 loufjohn


ΑΝΕΒΗΚΕ ΕΩΣ 26 (4/3/2018)

Επισκόπηση προηγούμενης Θ.Ενότητας Επισκόπηση επόμενης Θ.Ενότητας Επιστροφή στην κορυφή  Μήνυμα [Σελίδα 1 από 2]

Μετάβαση στη σελίδα : 1, 2  Επόμενο


Δικαιώματα σας στην κατηγορία αυτή
Δεν μπορείτε να απαντήσετε στα Θέματα αυτής της Δ.Συζήτησης

Τρόποι Κοινοποίησης:
URL:
BBCode:
HTML: