Σύντομα πολλές κατηγοριες θα είναι ανοιχτές για όλους...

Μη Συνδεδεμενος Παρακαλώ συνδεθείτε ή εγγραφείτε

Μετάβαση στη σελίδα : 1, 2, 3  Επόμενο

Επισκόπηση προηγούμενης Θ.Ενότητας Επισκόπηση επόμενης Θ.Ενότητας Πήγαινε κάτω  Μήνυμα [Σελίδα 1 από 3]

#1
 loufjohn


ΠΑΡΘΕΝΑ ΖΩΗ (2017-) ΑΝΤ1 TVRip AVI HD





[Πρέπει να είστε εγγεγραμμένοι και συνδεδεμένοι για να δείτε αυτόν το σύνδεσμο.]

Μια παρθένα, ένα ατύχημα και μία εγκυμοσύνη που έρχεται με τον πιο απίθανο τρόπο, μια σχέση που ξεκινάει «αντίστροφα», η σύγκρουση δύο διαφορετικών κόσμων
και ένα πολύ μεγάλο μυστικό σε ένα απίστευτο love story…
Η «Παρθένα Ζωή», μία καθημερινή, αισθηματική κομεντί που συνδυάζει το ρομαντισμό με το ρεαλισμό και τη συγκίνηση με το γέλιο, έρχεται αυτό το Σεπτέμβριο κ
αθημερινά στον ΑΝΤΕΝΝΑ!

Η νέα, καθημερινή, αισθηματική κομεντί, με τίτλο «Παρθένα Ζωή», μας παρουσιάζει μία όχι και τόσο συνηθισμένη ιστορία για την ηρωίδα μας, η οποία αν και παρθένα μένει
έγκυος!

Η Ζωή είναι μία 19χρονη κοπέλα, γεμάτη όνειρα για το μέλλον. Ζει με την οικογένειά της, έχει σχέση, αλλά είναι ακόμα παρθένα. Μία γυναικολογική εξέταση ρουτίνας
και ένα ιατρικό λάθος θα αλλάξουν τη ζωή της αλλά και τη ζωή των ανθρώπων γύρω της, για πάντα!
Η «Παρθένα Ζωή» βασισμένη στη σειρά, “Juana La Virgen” από τη Λατινική Αμερική, έχει ήδη κάνει «πάταγο» σε όλες τις χώρες προβολής της και «ταξιδεύει»
για πρώτη φορά στην Ελλάδα για να μεταφέρει στις οθόνες μας, ένα μοντέρνο παραμύθι για έναν αληθινό έρωτα γεμάτο μυστικά, διλήμματα, σημερινούς ήρωες
και κρυφούς «δράκους».

Στη σειρά θα δούμε ένα μεγάλο καστ ταλαντούχων ηθοποιών με γνωστά, αγαπημένα αλλά και πρωτοεμφανιζόμενα, φρέσκα πρόσωπα. Τη σκηνοθεσία υπογράφει
ο Πιέρρος Ανδρακάκος μαζί με τον Αλέξανδρο Πανταζούδη και τον Σπύρο Μιχαλόπουλο. Όλοι μαζί ενώνουν τις δυνάμεις τους και θα μας παρασύρουν
σ’ ένα σπιράλ περιπέτειας και ανατροπών, υπενθυμίζοντάς μας ότι στη ζωή τίποτα δεν είναι τυχαίο! Ούτε και το ατύχημα!


H Ιστορία:
Η Ζωή (Σοφίνα Λαζαράκη) έχει σχέση με τον Μάκη (Γιάννης Χατζηγεωργίου), ο οποίος είναι και ο πρώτος της έρωτας. Είναι παρθένα αλλά μένει έγκυος! Πώς;
Κατά τη διάρκεια της επίσκεψής της σε μια κλινική, για μια απλή γυναικολογική εξέταση, θα κάνουν σ’ εκείνη, τη σπερματέγχυση
που είχε προγραμματιστεί για μια άλλη γυναίκα, που βρίσκεται εκείνη την ώρα στο διπλανό δωμάτιο. Ο Άρης (Αποστόλης Τότσικας) και η γυναίκα του,
η Μαρίνα (Μυριέλα Κουρεντή) – η άλλη γυναίκα -, προσπαθούν να κάνουν παιδί με σπερματέγχυση. Ωστόσο, η Μαρίνα κρύβει ένα μεγάλο μυστικό.
Η Ζωή μετά την ανακοίνωση ότι είναι έγκυος,  αποφασίζει να κρατήσει το μωρό χωρίς να ξέρει ποιος είναι ο πατέρας, ενώ ο Άρης δεν ξέρει ότι η Ζωή
είναι έγκυος στο παιδί του. H Ζωή, κυνηγώντας το όνειρό της, πιάνει δουλειά ως φωτογράφος, στην εταιρεία του Άρη, ενώ ο κολλητός του, Παύλος (Γιάννης Ποιμενίδης),
 την ερωτεύεται και τη διεκδικεί.
Στο μεταξύ, η Ζωή με τον Άρη θα έρθουν κοντά και ηρωίδα μας,  θα ερωτευτεί εν αγνοία της, τον πατέρα του παιδιού της. Η αποκάλυψη του πως η Ζωή έμεινε έγκυος
αλλά και ποιος είναι ο πραγματικός πατέρας του παιδιού που κυοφορεί, θα φέρει τα πάνω κάτω στις ζωές όλων..
Τι θα κάνει η Ζωή που βρίσκεται ξαφνικά έγκυος και παρθένα, ανάμεσα σε δύο άντρες και με την οικογένειά της «απέναντι»;

[Πρέπει να είστε εγγεγραμμένοι και συνδεδεμένοι για να δείτε αυτόν το σύνδεσμο.]




[Πρέπει να είστε εγγεγραμμένοι και συνδεδεμένοι για να δείτε αυτόν το σύνδεσμο.]


   General
      Complete name :ZOYLA.EP.01.avi
      Format : AVI
      Format/Info : Audio Video Interleave
      File size : 949 MiB
      Duration : 43 min 43 s
      Overall bit rate : 3 036 kb/s
   Video [Πρέπει να είστε εγγεγραμμένοι και συνδεδεμένοι για να δείτε αυτόν το σύνδεσμο.]
      ID : 0
      Format : AVC
      Format/Info : Advanced Video Codec
      Format profile : Baseline@L4
      Format settings, CABAC : No
      Format settings, ReFrames : 1 frame
      Codec ID : H264
      Duration : 43 min 43 s
      Bit rate : 2 894 kb/s
      Width : 1 920 pixels
      Height : 1 080 pixels
      Display aspect ratio : 16:9
      Frame rate : 25.000 FPS
      Color space : YUV
      Chroma subsampling : 4:2:0
      Bit depth : 8 bits
      Scan type : Progressive
      Bits/(Pixel*Frame) : 0.056
      Stream size : 905 MiB (95%)
      Writing library : x264 core 146 r2538 121396c
    
   Audio [Πρέπει να είστε εγγεγραμμένοι και συνδεδεμένοι για να δείτε αυτόν το σύνδεσμο.]
      ID : 1
      Format : MPEG Audio
      Format version : Version 1
      Format profile : Layer 3
      Codec ID : 55
      Codec ID/Hint : MP3
      Duration : 43 min 42 s
      Bit rate mode : Constant
      Bit rate : 128 kb/s
      Channel(s) : 2 channels
      Sampling rate : 48.0 kHz
      Compression mode : Lossy
      Stream size : 40.0 MiB (4%)
      Alignment : Aligned on interleaves
      Interleave, duration : 24  ms (0.60 video frame)

 
[Πρέπει να είστε εγγεγραμμένοι και συνδεδεμένοι για να δείτε αυτόν το σύνδεσμο.]



[Πρέπει να είστε εγγεγραμμένοι και συνδεδεμένοι για να δείτε αυτόν το σύνδεσμο.]


[Πρέπει να είστε εγγεγραμμένοι και συνδεδεμένοι για να δείτε αυτόν το σύνδεσμο.]



[Πρέπει να είστε εγγεγραμμένοι και συνδεδεμένοι για να δείτε αυτόν το σύνδεσμο.]







Έχει επεξεργασθεί από τον/την loufjohn στις Τετ Μαϊος 23, 2018 6:24 am, 52 φορές συνολικά

#2
 loufjohn


ΑΝΕΒΗΚΕ ΕΩΣ 100

#3
 Insomniac


Ευχαριστω

#4
 loufjohn


ΑΝΕΒΗΚΕ ΕΩΣ 101

#5
 loufjohn


ΑΝΕΒΗΚΕ ΕΩΣ 102

#6
 aaatonis


thanks

#7
 loufjohn


ΑΝΕΒΗΚΕ ΕΩΣ 103

#8
 loufjohn


ΑΝΕΒΗΚΕ ΕΩΣ 104

#9
 loufjohn


ΑΝΕΒΗΚΕ ΕΩΣ 105

#10
 loufjohn


ΑΝΕΒΗΚΕ ΕΩΣ 106

#11
 loufjohn


ΑΝΕΒΗΚΕ ΕΩΣ 107

#12
 loufjohn


ΑΝΕΒΗΚΕ ΕΩΣ 108

#13
 loufjohn


ΑΝΕΒΗΚΕ ΕΩΣ 109

#14
 loufjohn


ΑΝΕΒΗΚΕ ΕΩΣ 110

#15
 loufjohn


ΑΝΕΒΗΚΕ ΕΩΣ 111

#16
 loufjohn


ΑΝΕΒΗΚΕ ΕΩΣ 112

#17
 loufjohn


ΑΝΕΒΗΚΕ ΕΩΣ 113

#18
 loufjohn


ΑΝΕΒΗΚΕ ΕΩΣ 114

#19
 loufjohn


ΑΝΕΒΗΚΕ ΕΩΣ 115

#20
 loufjohn


ΑΝΕΒΗΚΕ ΕΩΣ 116

#21
 loufjohn


ΑΝΕΒΗΚΕ ΕΩΣ 117

#22
 loufjohn


ΑΝΕΒΗΚΕ ΕΩΣ 118

#23
 Yannis Petris


Ευχαριστώ!

#24
 loufjohn


ΑΝΕΒΗΚΕ ΕΩΣ 119

#25
 loufjohn


ΑΝΕΒΗΚΕ ΕΩΣ 120

Επισκόπηση προηγούμενης Θ.Ενότητας Επισκόπηση επόμενης Θ.Ενότητας Επιστροφή στην κορυφή  Μήνυμα [Σελίδα 1 από 3]

Μετάβαση στη σελίδα : 1, 2, 3  Επόμενο


Δικαιώματα σας στην κατηγορία αυτή
Δεν μπορείτε να απαντήσετε στα Θέματα αυτής της Δ.Συζήτησης

Τρόποι Κοινοποίησης:
URL:
BBCode:
HTML: